<?xml version="1.0" standalone="no"?>
<!DOCTYPE svg PUBLIC "-//W3C//DTD SVG 1.1//EN" "http://www.w3.org/Graphics/SVG/1.1/DTD/svg11.dtd" >
<svg xmlns="http://www.w3.org/2000/svg">
<metadata>Generated by IcoMoon</metadata>
<defs>
<font id="icomoon" horiz-adv-x="1024">
<font-face units-per-em="1024" ascent="960" descent="-64" />
<missing-glyph horiz-adv-x="1024" />
<glyph unicode="&#x20;" horiz-adv-x="512" d="" />
<glyph unicode="&#xe900;" glyph-name="accueil" d="M999.619 406.796l-357.669 414.476c-31.482 36.499-77.791 59.462-129.463 59.462s-97.98-22.963-129.277-59.242l-0.186-0.22-358.644-414.476c-3.669-4.265-5.903-9.857-5.903-15.97 0-13.561 10.993-24.554 24.554-24.554 7.448 0 14.121 3.316 18.624 8.552l0.027 0.032 57.539 66.804v-354.255c0-40.396 32.747-73.143 73.143-73.143v0h639.269c40.396 0 73.143 32.747 73.143 73.143v0 354.255l57.539-66.804c4.499-5.237 11.128-8.533 18.528-8.533 0.001 0 0.001 0 0.002 0v0c6.095 0.072 11.641 2.371 15.873 6.118l-0.026-0.022c5.321 4.502 8.677 11.184 8.677 18.65 0 6.010-2.175 11.512-5.78 15.763l0.029-0.035zM609.524 63.025h-195.048v258.194c0 24.381 13.897 45.105 30.232 45.105h134.095c16.335 0 30.232-20.724 30.232-45.105zM856.259 494.568v-407.162c0-13.465-10.916-24.381-24.381-24.381v0h-173.592v258.194c0 51.688-35.596 93.867-78.994 93.867h-134.095c-43.398 0-78.994-42.179-78.994-93.867v-258.194h-173.836c-13.465 0-24.381 10.916-24.381 24.381v0 407.162c0 1.219 0 1.95 0 3.17l252.099 292.571c22.485 26.023 55.533 42.392 92.404 42.392s69.919-16.369 92.273-42.236l0.131-0.155 252.099-292.571c-0.488-1.219-0.975-1.95-0.975-3.17z" />
<glyph unicode="&#xe901;" glyph-name="avantage" d="M1002.545 484.571c-0.138 48.419-39.352 87.633-87.758 87.771h-153.857c19.856 53.367 31.345 115.021 31.345 179.359 0 7.061-0.138 14.090-0.413 21.084l0.031-1.006c0.001 0.219 0.001 0.477 0.001 0.736 0 8.335-0.532 16.545-1.564 24.599l0.1-0.954c-0.551 48.057-39.637 86.802-87.771 86.802-48.478 0-87.777-39.299-87.777-87.777 0-0.343 0.002-0.685 0.006-1.027v0.052-21.943c0-150.674-224.305-219.429-297.204-237.958-11.086 22.386-33.761 37.515-59.973 37.547h-211.875c-13.465 0-24.381-10.916-24.381-24.381v0-508.587c0-13.465 10.916-24.381 24.381-24.381v0h211.87c25.929 0.326 48.268 15.374 59.071 37.157l0.175 0.389 21.943-5.851 5.608-1.463c60.455-19.118 129.982-30.134 202.081-30.134 4.985 0 9.958 0.053 14.918 0.157l-0.74-0.012h226.743c0.027 0 0.060 0 0.092 0 48.475 0 87.771 39.297 87.771 87.771 0 16.856-4.751 32.602-12.988 45.972l0.217-0.379c32.561 13.479 55.052 45 55.052 81.774 0 16.805-4.697 32.513-12.849 45.884l0.22-0.389c32.561 13.313 55.087 44.74 55.101 81.431v0.002c0 0.070 0 0.152 0 0.235 0 16.797-4.812 32.47-13.132 45.716l0.21-0.358c32.718 13.407 55.345 45.007 55.345 81.892 0 0.095 0 0.191 0 0.286v-0.015zM784.579 420.937c0-13.465 10.916-24.381 24.381-24.381v0h63.634c20.438-1.658 36.396-18.653 36.396-39.375s-15.958-37.717-36.256-39.366l-0.141-0.009h-106.301c-13.465 0-24.381-10.916-24.381-24.381s10.916-24.381 24.381-24.381v0h62.659c20.438-1.658 36.396-18.653 36.396-39.375s-15.958-37.717-36.256-39.366l-0.141-0.009h-105.082c-13.465 0-24.381-10.916-24.381-24.381s10.916-24.381 24.381-24.381v0h63.634c21.679 0 39.253-17.574 39.253-39.253s-17.574-39.253-39.253-39.253h-226.743c-3.775-0.080-8.224-0.125-12.683-0.125-67.7 0-132.954 10.476-194.228 29.895l4.549-1.244-32.914 8.533v384.488c82.651 19.992 339.139 97.524 339.139 286.476v22.43c1.658 20.438 18.653 36.396 39.375 36.396s37.717-15.958 39.366-36.256l0.009-0.141c-0.043-0.765-0.067-1.66-0.067-2.56s0.024-1.795 0.073-2.684l-0.005 0.124c0.972-11.318 1.526-24.49 1.526-37.792 0-64.466-13.018-125.892-36.568-181.792l1.152 3.081h-70.217c-13.465 0-24.381-10.916-24.381-24.381s10.916-24.381 24.381-24.381v0h275.505c20.438-1.658 36.396-18.653 36.396-39.375s-15.958-37.717-36.256-39.366l-0.141-0.009h-106.057c-13.191-0.133-23.866-10.723-24.137-23.868v-0.025zM275.749 505.295v-423.985c0-9.964-8.078-18.042-18.042-18.042h-187.733v460.069h187.733c9.964 0 18.042-8.078 18.042-18.042v0z" />
<glyph unicode="&#xe902;" glyph-name="cadeau" d="M859.352 666.274h-134.737c7.788 5.714 14.642 11.457 21.11 17.602l-0.092-0.086c80.842 80.842 51.469 169.768 11.857 209.651s-128.539 69.255-209.651-11.857c-14.711-15.232-26.851-33.068-35.643-52.727l-0.467-1.167c-9.259 20.827-21.398 38.662-36.161 53.948l0.051-0.053c-28.539 31.737-69.735 51.606-115.572 51.606-2.286 0-4.56-0.049-6.822-0.147l0.323 0.011c-34.152-2.967-64.437-17.519-87.351-39.652l0.041 0.040c-39.613-41.229-69.255-128.269 11.857-209.651 6.362-6.157 13.221-11.904 20.473-17.141l0.546-0.375h-134.737c-59.53 0-107.789-48.259-107.789-107.789v0-487.747c0-59.53 48.259-107.789 107.789-107.789v0h694.973c59.53 0 107.789 48.259 107.789 107.789v0 487.747c0 59.53-48.259 107.789-107.789 107.789v0zM913.246 558.484v-211.806h-374.299v265.701h320.404c29.765 0 53.895-24.129 53.895-53.895v0zM586.105 843.587c19.075 21.867 46.988 35.607 78.11 35.607 0.961 0 1.918-0.013 2.873-0.039l-0.141 0.003c21.002-1.598 39.704-10.333 53.938-23.754l-0.044 0.041c13.535-14.129 22.376-32.849 23.965-53.599l0.018-0.296c0.023-0.818 0.037-1.78 0.037-2.746 0-31.172-13.855-59.107-35.743-77.984l-0.133-0.112c-45.541-45.541-129.078-48.505-168.691-47.158v20.749c-0.539 46.619 8.893 112.371 45.811 149.288zM304.505 855.444c14.191 13.381 32.893 22.115 53.596 23.695l0.298 0.018h5.389c29.652-1.713 55.862-15.166 74.285-35.738l0.090-0.102c45.272-45.541 48.236-129.347 46.888-168.691-46.080-1.617-126.114 4.581-168.421 47.158-22.021 18.989-35.877 46.925-35.877 78.097 0 0.965 0.013 1.928 0.040 2.887l-0.003-0.141c1.786 20.619 10.49 38.923 23.748 52.853l-0.034-0.036zM164.648 612.918h320.404v-265.701h-374.299v211.267c0 29.765 24.129 53.895 53.895 53.895v0zM110.754 70.737v222.046h374.299v-275.941h-320.404c-29.765 0-53.895 24.129-53.895 53.895v0zM859.352 16.842h-320.404v275.941h374.299v-222.046c0-29.765-24.129-53.895-53.895-53.895v0z" />
<glyph unicode="&#xe903;" glyph-name="check-filtre" d="M984.615 776.074c-7.138 7.195-17.031 11.65-27.963 11.65s-20.825-4.454-27.961-11.647l-0.003-0.003-574.228-572.652-258.363 259.545c-7.174 7.435-17.226 12.053-28.357 12.053s-21.183-4.617-28.346-12.041l-0.011-0.012c-7.078-7.119-11.453-16.932-11.453-27.766s4.375-20.647 11.455-27.768l-0.002 0.002 287.114-286.326c7.116-7.256 17.008-11.768 27.954-11.815h0.009c10.955 0.047 20.847 4.559 27.957 11.809l0.006 0.006 602.191 599.434c7.078 7.119 11.453 16.932 11.453 27.766s-4.375 20.647-11.455 27.768l0.002-0.002z" />
<glyph unicode="&#xe904;" glyph-name="connexion" d="M997.053 448c0 0.024 0 0.052 0 0.081 0 267.887-217.165 485.053-485.053 485.053s-485.053-217.165-485.053-485.053c0-152.019 69.933-287.705 179.384-376.64l0.894-0.704c82.482-66.95 188.759-107.491 304.505-107.491s222.023 40.541 305.406 108.199l-0.9-0.708c110.529 89.533 180.65 225.192 180.817 377.235v0.028zM80.842 448c0.534 237.718 193.365 430.22 431.157 430.22 238.122 0 431.158-193.036 431.158-431.158 0-116.952-46.564-223.028-122.165-300.7l0.094 0.097c-27.451 102.513-102.337 183.172-199.087 218.115l-2.21 0.697c44.839 33.403 73.566 86.27 73.566 145.847 0 100.16-81.196 181.356-181.356 181.356s-181.356-81.196-181.356-181.356c0-59.577 28.728-112.444 73.086-145.505l0.48-0.342c-99.181-35.498-174.28-116.192-201.327-216.593l-0.509-2.219c-75.179 77.276-121.538 182.924-121.538 299.399 0 0.753 0.002 1.506 0.006 2.259v-0.116zM385.617 511.326c0.003 70.393 57.068 127.456 127.461 127.456 70.395 0 127.461-57.066 127.461-127.461s-57.066-127.461-127.461-127.461c-0.379 0-0.758 0.002-1.136 0.005h0.058c-70.395 0-127.461 57.066-127.461 127.461v0zM250.88 105.499c20.708 128.034 130.442 224.622 262.737 224.622s242.030-96.589 262.532-223.093l0.204-1.529c-71.823-55.962-163.337-89.725-262.737-89.725s-190.913 33.763-263.699 90.446l0.962-0.721z" />
<glyph unicode="&#xe905;" glyph-name="crimes-enquetes" d="M989.238 9.027l-346.274 346.004c52.417 60.876 84.337 140.702 84.337 227.983 0 193.474-156.842 350.316-350.316 350.316s-350.316-156.842-350.316-350.316c0-193.474 156.842-350.316 350.316-350.316 87.282 0 167.108 31.92 228.442 84.723l-0.459-0.386 346.004-346.274c4.884-4.923 11.652-7.971 19.133-7.971s14.248 3.048 19.131 7.969l0.002 0.002c4.923 4.884 7.971 11.652 7.971 19.133s-3.048 14.248-7.969 19.131l-0.002 0.002zM80.842 582.737c0 163.709 132.712 296.421 296.421 296.421s296.421-132.712 296.421-296.421c0-163.709-132.712-296.421-296.421-296.421v0c-163.709 0-296.421 132.712-296.421 296.421v0z" />
<glyph unicode="&#xe906;" glyph-name="cuisine" d="M998.939 591.629c-9.544 103.895-96.051 184.692-201.522 185.128h-0.044c-0.039 0-0.085 0-0.131 0-26.025 0-50.894-4.945-73.72-13.947l1.363 0.474c-21.81 99.030-108.822 172.032-212.884 172.032s-191.074-73.002-212.617-170.587l-0.268-1.445c-20.536 7.701-44.268 12.159-69.042 12.159-111.62 0-202.105-90.486-202.105-202.105 0-81.154 47.832-151.137 116.842-183.293l1.244-0.52c15.625-6.78 33.785-11.966 52.741-14.685l1.154-0.136v-386.695c0-14.883 12.065-26.947 26.947-26.947v0h570.476c14.883 0 26.947 12.065 26.947 26.947v0 386.695c99.555 14.351 175.206 99.082 175.206 201.482 0 5.435-0.213 10.821-0.632 16.149l0.044-0.705zM769.886 182.568v-167.074h-515.773v167.074zM769.886 400.303v-161.684h-515.773v161.684c0 14.883-12.065 26.947-26.947 26.947v0 0c-80.911 0.459-146.324 66.155-146.324 147.13 0 0.096 0 0.191 0 0.287v-0.015c0 0.082 0 0.179 0 0.276 0 80.637 64.987 146.095 145.444 146.856l0.072 0.001c0.122 0 0.265 0.001 0.409 0.001 29.927 0 57.764-8.952 80.978-24.323l-0.546 0.34c4.26-2.952 9.539-4.716 15.229-4.716 9.534 0 17.912 4.951 22.702 12.423l0.065 0.108c2.911 4.158 4.776 9.242 5.116 14.738l0.004 0.083c0.756 88.99 72.694 160.928 161.612 161.684h2.228c89.296 0 161.684-72.388 161.684-161.684v0c0.030-7.63 3.227-14.508 8.343-19.392l0.010-0.010c4.869-4.83 11.574-7.815 18.977-7.815 0.055 0 0.11 0 0.164 0h-0.008c5.44 0.101 10.463 1.798 14.645 4.641l-0.094-0.060c22.67 14.984 50.49 23.906 80.393 23.906 51.248 0 96.376-26.201 122.719-65.937l0.34-0.545c14.948-22.65 23.847-50.437 23.847-80.303 0-81.259-65.874-147.133-147.133-147.133-0.047 0-0.094 0-0.141 0h0.007c-0.323 0.014-0.703 0.022-1.084 0.022-14.883 0-26.947-12.065-26.947-26.947 0-0.197 0.002-0.394 0.006-0.59v0.029z" />
<glyph unicode="&#xe907;" glyph-name="deconnexion" horiz-adv-x="848" d="M528.516 742.868c-1.931 0.614-4.151 0.967-6.454 0.967-12.162 0-22.022-9.859-22.022-22.022 0-10.39 7.195-19.099 16.875-21.417l0.15-0.030c153.568-42.434 264.461-180.907 264.461-345.28 0-197.513-160.116-357.629-357.629-357.629s-357.629 160.116-357.629 357.629c0 161.248 106.716 297.571 253.375 342.195l2.533 0.663c7.693 3.546 12.936 11.191 12.936 20.060 0 12.162-9.859 22.022-22.022 22.022-1.146 0-2.271-0.087-3.37-0.256l0.123 0.016c-167.289-51.038-286.887-204.013-286.887-384.922 0-221.837 179.835-401.672 401.672-401.672s401.672 179.835 401.672 401.672c0 184.891-124.921 340.605-294.965 387.344l-2.819 0.661zM422.372 530.801c12.162 0 22.022 9.859 22.022 22.022v0 363.135c0 12.162-9.859 22.022-22.022 22.022s-22.022-9.859-22.022-22.022v0-363.135c0-12.162 9.859-22.022 22.022-22.022v0z" />
<glyph unicode="&#xe908;" glyph-name="decouvrir-mobile" d="M512 928c-265.097 0-480-214.903-480-480s214.903-480 480-480c265.097 0 480 214.903 480 480v0c0 265.097-214.903 480-480 480v0zM512 32c-229.75 0-416 186.25-416 416s186.25 416 416 416c229.75 0 416-186.25 416-416v0c0-229.75-186.25-416-416-416v0zM696.64 485.44h-152.64v147.2c0 17.673-14.327 32-32 32s-32-14.327-32-32v0-147.2h-152.64c-17.673 0-32-14.327-32-32s14.327-32 32-32h152.64v-158.080c0-17.673 14.327-32 32-32s32 14.327 32 32v0 158.080h152.64c17.673 0 32 14.327 32 32s-14.327 32-32 32v0z" />
<glyph unicode="&#xe909;" glyph-name="dispo-offres" d="M966.732 757.096c-10.25 10.372-24.476 16.796-40.201 16.796s-29.952-6.424-40.196-16.79l-0.005-0.006-497.588-497.588-251.070 251.070c-10.333 10.19-24.533 16.482-40.201 16.482s-29.868-6.293-40.208-16.489l0.007 0.006c-10.372-10.25-16.796-24.476-16.796-40.201s6.424-29.952 16.79-40.196l0.006-0.005 289.375-289.754c10.006-10.301 23.988-16.692 39.462-16.692 0.26 0 0.519 0.002 0.778 0.005h-0.039c0.126-0.001 0.274-0.002 0.423-0.002 15.573 0 29.655 6.385 39.771 16.681l0.008 0.008 539.686 536.273c10.372 10.25 16.796 24.476 16.796 40.201s-6.424 29.952-16.79 40.196l-0.006 0.005z" />
<glyph unicode="&#xe90a;" glyph-name="economique" d="M943.445 488.505c-10.554 2.059-19.939 5.776-28.367 10.909l0.378-0.214c-15.673 40.144-36.404 74.772-61.917 105.262l0.477-0.586c1.135 6.825 1.796 14.703 1.82 22.732v0.024c0 39.14-1.593 72.818-24.121 86.016v0c-22.756 12.743-51.428-2.276-87.836-22.756-7.050-4.143-13.069-8.277-18.781-12.781l0.349 0.265c-23.559 8.444-50.918 14.493-79.299 16.978l-1.256 0.089c-8.16 90.809-83.902 161.441-176.141 161.441-96.886 0-175.571-77.928-176.796-174.523l-0.001-0.116c0-3.641 0-7.282 0-10.923-80.084-46.679-134.769-129.34-141.938-225.243l-0.057-0.947-4.551 1.138c-7.399 0.446-14.298 2.077-20.679 4.707l0.427-0.156c2.866 8.829 4.519 18.988 4.519 29.533 0 6.618-0.651 13.084-1.892 19.338l0.104-0.628c-3.061 18.749-17.957 33.258-36.648 35.703l-0.216 0.023c-2.167 0.318-4.669 0.5-7.214 0.5-19.288 0-36.14-10.434-45.218-25.965l-0.134-0.248c-3.235-6.558-5.127-14.276-5.127-22.436 0-14.826 6.246-28.194 16.251-37.614l0.026-0.024q6.827-7.509 13.653-13.653c-7.37-7.042-16.043-12.797-25.61-16.856l-0.559-0.211c-7.949-3.664-13.366-11.564-13.366-20.728 0-12.227 9.643-22.201 21.738-22.733l0.048-0.002c3.213 0.062 6.254 0.725 9.039 1.881l-0.164-0.060c18.885 8.086 34.84 19.736 47.666 34.222l0.121 0.139c12.209-5.496 26.393-9.090 41.303-9.996l0.34-0.016c0.479-0.112 1.028-0.176 1.593-0.176s1.114 0.064 1.642 0.186l-0.049-0.010c0-169.529 103.765-227.556 142.45-242.802l20.48-101.49c2.189-10.463 11.339-18.209 22.297-18.209 0.161 0 0.322 0.002 0.483 0.005h90.998c0.181-0.005 0.394-0.008 0.608-0.008 10.714 0 19.698 7.404 22.116 17.374l0.032 0.156 13.881 57.572c19.134-2.562 41.254-4.025 63.716-4.025s44.582 1.463 66.27 4.298l-2.554-0.273c7.282-38.684 10.468-55.524 10.468-55.751 2.006-10.685 11.264-18.663 22.384-18.663 0.13 0 0.261 0.001 0.391 0.003h98.056c0.087-0.001 0.19-0.002 0.293-0.002 11.283 0 20.647 8.211 22.444 18.984l0.018 0.133 18.887 111.502c29.522 11.349 55.025 26.165 77.706 44.356l-0.564-0.438c11.224 10.468 21.126 22.105 29.589 34.784l0.449 0.714c12.288 22.609 33.254 39.185 58.311 45.38l0.625 0.131c71.908 15.474 75.093 45.511 75.093 103.083v5.689c-0.683 62.35-15.474 76.686-58.482 86.016zM78.734 486.002s2.048 2.048 3.641 2.731c0.213-1.572 0.334-3.389 0.334-5.234s-0.121-3.662-0.356-5.443l0.023 0.209c-2.503 4.551-3.186 7.509-2.958 7.737zM765.724 650.069c11.812 7.433 25.451 14.316 39.741 19.904l1.674 0.576c1.69-10.585 2.656-22.789 2.656-35.219 0-2.979-0.055-5.946-0.165-8.898l0.013 0.426c-0.215-15.131-2.277-29.684-5.971-43.572l0.282 1.247c-14.577 4.178-27.263 9.605-39.079 16.378l0.85-0.449c-12.14 7.42-22.656 15.692-32.099 25.045l0.014-0.013c9.664 9.023 20.391 17.144 31.904 24.092l0.864 0.484zM467.854 812.089c0 0 0 0 0 0 72.515 0 131.3-58.785 131.3-131.3 0-0.080 0-0.16 0-0.24v0.012c0-1.593 0-3.413 0-5.006-0.051-0.512-0.080-1.106-0.080-1.707s0.029-1.195 0.086-1.781l-0.006 0.074c-0.047-0.239-0.074-0.515-0.074-0.796s0.027-0.557 0.078-0.824l-0.004 0.027c-3.204-42.978-26.835-79.823-61.116-101.17l-0.551-0.32-1.365-1.365c-20.506 2.891-44.194 4.541-68.267 4.541s-47.76-1.65-70.955-4.844l2.689 0.303-1.365 1.593c-37.448 23.561-61.969 64.668-61.969 111.503 0 72.515 58.785 131.3 131.3 131.3 0.106 0 0.212 0 0.318 0h-0.017zM955.733 397.028c0-50.062 0-50.062-39.14-58.482-37.133-9.023-67.676-32.284-86.124-63.534l-0.347-0.636c-6.796-10.378-14.298-19.398-22.705-27.486l-0.051-0.048c-21.338-16.541-46.085-30.055-72.831-39.28l-1.807-0.542c-7.908-2.687-13.775-9.388-15.226-17.612l-0.020-0.137-17.522-105.358h-60.985c-2.503 12.743-6.144 32.313-11.378 59.847-1.365 6.193-4.982 11.37-9.929 14.738l-0.083 0.053c-3.465 2.244-7.701 3.578-12.248 3.578-1.871 0-3.689-0.226-5.429-0.652l0.156 0.032c-23.056-4.168-49.593-6.551-76.686-6.551s-53.63 2.383-79.413 6.951l2.726-0.4c-1.216 0.231-2.616 0.362-4.045 0.362-10.677 0-19.637-7.354-22.091-17.273l-0.033-0.156-14.791-60.53h-54.386l-19.57 95.801c-1.736 8.724-8.27 15.563-16.681 17.715l-0.158 0.034c-1.138 0-121.97 31.403-121.97 204.8 0 132.892 71.225 196.608 108.316 220.729 8.918-25.39 22.592-47.124 40.089-65.122l-0.040 0.041c-11.605-3.186-18.66-5.689-19.797-6.144-8.512-3.421-14.412-11.607-14.412-21.171 0-12.354 9.845-22.409 22.118-22.747l0.031-0.001c0.059-0.001 0.129-0.001 0.198-0.001 2.786 0 5.456 0.501 7.923 1.417l-0.157-0.051c39.259 12.257 84.398 19.317 131.186 19.317s91.927-7.060 134.41-20.174l-3.224 0.857c1.926-0.589 4.14-0.928 6.434-0.928 10.22 0 18.867 6.738 21.74 16.013l0.043 0.161c0.617 1.969 0.972 4.234 0.972 6.581 0 10.32-6.87 19.035-16.285 21.822l-0.161 0.041-19.115 4.779c23.993 24.121 41.029 55.183 47.833 89.911l0.181 1.111c16.813-1.694 31.916-4.341 46.626-7.981l-2.253 0.472c-3.711-4.036-5.986-9.443-5.986-15.382 0-5.189 1.737-9.972 4.661-13.801l-0.040 0.055c16.362-20.308 35.79-37.344 57.731-50.649l0.978-0.551c21.261-12.333 46.044-21.474 72.409-25.982l1.319-0.187h2.503c9.169 0.020 17.063 5.459 20.649 13.284l0.058 0.142c12.709-20.064 24.483-43.216 34.057-67.477l0.987-2.838c1.2-3.2 2.981-5.932 5.234-8.193l-0.001 0.001c14.706-12.785 33.053-21.753 53.287-25.169l0.644-0.090c22.756-4.779 22.756-4.779 22.756-41.415zM800.54 481.223c-15.332 0-27.762-12.429-27.762-27.762s12.429-27.762 27.762-27.762c15.332 0 27.762 12.429 27.762 27.762v0c0.001 0.068 0.001 0.148 0.001 0.229 0 15.207-12.327 27.534-27.534 27.534-0.080 0-0.161 0-0.241-0.001h0.012z" />
<glyph unicode="&#xe90b;" glyph-name="fermer-small" d="M592.403 448l375.087 375.087c11.154 10.414 18.106 25.205 18.106 41.621 0 31.419-25.47 56.889-56.889 56.889-16.415 0-31.207-6.952-41.59-18.073l-0.031-0.033-375.087-375.087-375.087 375.087c-10.132 9.46-23.779 15.268-38.782 15.268-31.419 0-56.889-25.47-56.889-56.889 0-15.004 5.808-28.651 15.299-38.815l-0.031 0.033 375.087-375.087-375.087-375.087c-10.372-10.25-16.796-24.476-16.796-40.201s6.424-29.952 16.79-40.196l0.006-0.005c10.292-10.28 24.505-16.637 40.201-16.637s29.909 6.357 40.202 16.638l375.086 375.086 375.087-375.087c10.292-10.28 24.505-16.637 40.201-16.637s29.909 6.357 40.202 16.638l-0.001-0.001c10.372 10.25 16.796 24.476 16.796 40.201s-6.424 29.952-16.79 40.196l-0.006 0.005z" />
<glyph unicode="&#xe90c;" glyph-name="fermer" d="M557.12 448l434.88 433.28c5.751 5.784 9.305 13.757 9.305 22.56s-3.555 16.776-9.307 22.562l0.002-0.002c-5.8 5.846-13.837 9.466-22.72 9.466s-16.92-3.619-22.718-9.463l-0.002-0.002-434.56-433.28-433.28 433.28c-5.854 6.241-14.153 10.13-23.36 10.13s-17.506-3.888-23.344-10.112l-0.016-0.017c-5.751-5.784-9.305-13.757-9.305-22.56s3.555-16.776 9.307-22.562l-0.002 0.002 434.56-433.28-434.56-433.28c-5.656-5.767-9.148-13.676-9.148-22.4 0-17.627 14.252-31.925 31.861-32h0.007c0.91-0.092 1.966-0.144 3.035-0.144 8.038 0 15.383 2.963 21.004 7.857l-0.039-0.033 433.28 434.88 432.96-434.88c5.782-5.736 13.744-9.281 22.535-9.281 0.065 0 0.13 0 0.195 0.001h-0.010c0.519-0.030 1.127-0.047 1.738-0.047 8.814 0 16.796 3.563 22.583 9.328l-0.001-0.001c5.751 5.784 9.305 13.757 9.305 22.56s-3.555 16.776-9.307 22.562l0.002-0.002z" />
<glyph unicode="&#xe90d;" glyph-name="fleche" d="M996.16 853.12c-1.754 5.795-6.688 10.085-12.723 10.872l-0.077 0.008c-26.004 3.014-56.135 4.733-86.667 4.733-194.108 0-371.986-69.493-510.111-184.956l1.258 1.023c-147.52-120.32-246.72-288-297.92-499.84-3.2 50.24-7.36 100.48-12.16 148.8-3.527 56.619-10.36 108.844-20.449 159.9l1.249-7.58c-1.415 7.655-8.039 13.377-16 13.377-8.979 0-16.257-7.279-16.257-16.257 0-1.018 0.094-2.014 0.273-2.98l-0.015 0.1c8.379-42.104 15.089-93.213 18.663-145.185l0.217-3.935c8.64-90.88 16.96-187.2 18.24-280.32-0.074-0.576-0.116-1.243-0.116-1.92s0.042-1.344 0.124-1.998l-0.008 0.078c-0.044-0.43-0.069-0.93-0.069-1.435 0-2.515 0.617-4.885 1.708-6.968l-0.039 0.083c1.158-6.697 6.614-11.827 13.379-12.475l0.061-0.005h1.92c7.282 0.154 13.379 5.054 15.331 11.725l0.029 0.115c10.454 32.326 24.023 60.402 40.837 86.168l-0.837-1.368c51.054 79.075 108.299 147.609 172.882 208.44l0.558 0.52c2.923 2.9 4.733 6.919 4.733 11.36s-1.81 8.46-4.732 11.359l-0.001 0.001c-2.848 2.905-6.814 4.706-11.2 4.706s-8.352-1.801-11.197-4.704l-0.003-0.003c-64.606-61.321-121.785-129.378-170.746-203.35l-2.694-4.33c47.040 219.2 145.6 391.68 295.040 512 131.965 110.84 303.704 178.176 491.169 178.176 21.749 0 43.286-0.906 64.576-2.683l-2.786 0.187c0.59-1.235 1.34-2.293 2.241-3.201l-0.001 0.001c2.934-2.847 6.942-4.603 11.36-4.603s8.426 1.755 11.364 4.607l5.436 5.436c3.021 2.915 4.897 6.998 4.897 11.52 0 1.714-0.269 3.365-0.768 4.913l0.032-0.113z" />
<glyph unicode="&#xe90e;" glyph-name="hors-serie-non" d="M1008.953 781.322c-2.054 6.494-7.566 11.308-14.322 12.318l-0.097 0.012-82.338 12.957 72.516 72.516c3.818 3.788 6.182 9.037 6.182 14.838s-2.364 11.050-6.18 14.836l-0.001 0.001c-3.777 3.756-8.984 6.077-14.733 6.077s-10.956-2.321-14.734-6.078l-71.052-71.052-30.302 66.456c-2.317 4.272-6.138 7.481-10.735 8.95l-0.132 0.036c-1.645 0.541-3.539 0.854-5.505 0.854-3.108 0-6.035-0.78-8.593-2.155l0.097 0.048c-3.479-1.803-6.223-4.615-7.895-8.045l-0.046-0.105-43.468-94.877-96.967-15.256c-6.832-1.071-12.322-5.863-14.384-12.203l-0.036-0.127c-0.556-1.686-0.876-3.627-0.876-5.642 0-4.938 1.925-9.427 5.065-12.757l-0.009 0.009 67.918-71.262-262.269-262.060v260.18l35.944 15.047c23.406 9.822 45.976 18.181 68.127 25.704 0 1.672 0 3.553 0 5.224 0.054 13.989 1.268 27.655 3.551 40.955l-0.207-1.458c-28.421-8.986-57.26-19.435-87.144-31.974l-41.796-16.927-41.796 16.927c-76.997 34.411-166.315 58.173-260.047 66.635l-3.268 0.238-38.661 3.135c-0.519 0.046-1.123 0.072-1.733 0.072-10.979 0-19.98-8.466-20.832-19.225l-0.005-0.073v-69.381h-53.081c-11.542 0-20.898-9.356-20.898-20.898v0-621.505c0-11.542 9.356-20.898 20.898-20.898v0h72.934l-45.349-44.513c-3.818-3.788-6.182-9.037-6.182-14.838s2.364-11.050 6.18-14.836l0.001-0.001c3.788-3.818 9.037-6.182 14.838-6.182s11.050 2.364 14.836 6.18l0.001 0.001 74.815 74.397h708.023c11.542 0 20.898 9.356 20.898 20.898v0 402.495c-12.033-2.842-26.325-4.996-40.93-6.012l-0.866-0.048v-376.163h-290.064l4.807 1.672 13.584 4.389 17.345 5.433 13.793 3.971 17.972 4.598h2.090l11.494 2.717 18.39 4.18h2.717l10.658 2.299 13.793 2.508h5.016l4.807 2.508 20.898 2.926h10.449c10.449 1.254 20.898 2.508 32.392 3.344l37.825 3.135c10.8 0.893 19.226 9.878 19.226 20.831 0 0.024 0 0.047 0 0.071v-0.004 311.589c-15.309 0.86-29.621 2.947-43.491 6.185l1.695-0.333v-294.452l-18.599-1.463c-97.664-8.727-187.624-32.412-270.736-68.829l5.54 2.164-20.898-8.568v256.836l256.418 254.955-6.687-41.796c-0.162-0.911-0.254-1.959-0.254-3.029 0-10.041 8.14-18.181 18.181-18.181 3.323 0 6.438 0.891 9.118 2.448l-0.087-0.047 86.309 48.901 86.309-48.901c2.599-1.427 5.691-2.276 8.979-2.299h0.007c3.915 0.056 7.529 1.299 10.51 3.384l-0.061-0.040c4.614 3.382 7.577 8.783 7.577 14.875 0 1.094-0.096 2.166-0.279 3.207l0.016-0.11-16.718 104.49 70.844 74.188c3.010 3.293 4.853 7.696 4.853 12.529 0 2.252-0.4 4.41-1.133 6.408l0.041-0.129zM129.985 769.829l16.3-1.254c92.93-8.009 178.603-30.684 257.545-65.761l-5.098 2.023 35.944-15.047v-301.976l-208.98-208.98c-24.66 4.389-49.528 7.732-74.606 9.822l-20.898 1.881zM56.007 103.393v579.5h32.183v-511.791c0-0.025 0-0.055 0-0.085 0-10.879 8.314-19.817 18.934-20.807l0.083-0.006 39.079-3.344 31.138-3.135v-1.672h9.404l-36.989-38.661zM208.98 103.393l29.257 29.257 7.523-1.672h1.881c5.433-1.045 12.121-2.508 18.599-4.18l13.166-3.344c7.314-1.672 12.957-3.344 18.181-4.807l10.658-2.926h2.717l17.972-5.433 12.957-4.389 4.18-1.254zM434.26 113.633l-18.808 7.941c-39.223 17.243-86.3 33.279-134.906 45.461l-6.365 1.351 160.078 160.287zM828.604 650.71l-62.694-35.318 8.568 53.917 105.744 105.744s0 0 1.672 0l72.098-11.285-52.872-55.38c-3.122-3.319-5.041-7.801-5.041-12.732 0-1.039 0.085-2.057 0.249-3.050l-0.015 0.108 12.539-77.531-62.694 35.318c-2.572 1.506-5.664 2.395-8.964 2.395-3.149 0-6.109-0.81-8.683-2.233l0.092 0.047zM806.452 784.457l31.138 67.918 19.226-41.796-92.787-92.996-43.259 45.349 71.889 11.285c6.15 0.893 11.225 4.791 13.746 10.131l0.046 0.109z" />
<glyph unicode="&#xe90f;" glyph-name="hors-serie" d="M847.462 71.168h-284.058l4.506 1.638 13.517 4.301 16.998 5.12 13.517 3.891 17.408 4.71h2.253l11.264 2.867 18.022 4.096h2.662l10.445 2.253 13.517 2.662h4.915l4.71 2.253c6.963 1.229 14.131 2.048 20.48 3.072h10.24l31.744 3.277 37.069 2.867c10.584 0.875 18.842 9.68 18.842 20.414 0 0.023 0 0.046 0 0.069v-0.004 304.742c-15.075 0.888-29.106 2.858-42.75 5.86l1.79-0.331v-288.358l-16.794-1.434c-96.072-8.505-184.59-31.796-266.341-67.658l5.426 2.122-20.48-8.397v564.838l35.635 14.746c22.938 9.421 45.056 17.818 66.765 24.986 0 1.843 0 3.482 0 5.325 0.061 13.715 1.251 27.107 3.48 40.144l-0.203-1.437c-27.853-8.806-56.115-19.046-85.402-31.334l-40.96-16.589-40.96 16.589c-75.468 33.669-163.010 56.889-254.872 65.102l-3.176 0.229-37.888 3.277c-0.509 0.045-1.101 0.071-1.699 0.071-10.759 0-19.58-8.296-20.415-18.841l-0.005-0.071v-68.198h-52.019c-11.311 0-20.48-9.169-20.48-20.48v0-608.87c0-11.311 9.169-20.48 20.48-20.48v0h823.296c11.311 0 20.48 9.169 20.48 20.48v0 394.65c-11.899-2.899-25.912-5.015-40.257-5.904l-0.703-0.035zM65.126 71.168v568.115h31.539v-501.555c0-0.025 0-0.054 0-0.083 0-10.662 8.147-19.421 18.556-20.391l0.081-0.006 39.117-3.277 29.901-3.891h3.072l20.48-2.867 9.216-1.638 6.758-1.229 15.36-2.867 11.059-2.253h1.843l18.227-4.096 12.902-3.277 17.818-4.71 10.445-3.072h2.662c5.734-1.843 11.674-3.482 17.408-5.53l12.902-4.096 4.096-1.434zM435.814 81.408l-18.432 7.578c-75.88 33.779-163.894 57.134-256.234 65.503l-3.248 0.238-20.48 1.843v567.91l15.565-1.434c90.976-7.492 174.98-29.372 252.43-63.412l-5.032 1.972 35.226-14.541zM999.014 735.744c-2.097 6.311-7.457 10.987-14.028 12.069l-0.103 0.014-95.027 14.746-43.008 93.594c-2.191 4.178-5.871 7.326-10.319 8.771l-0.126 0.035c-1.591 0.491-3.421 0.774-5.316 0.774-3.066 0-5.959-0.74-8.51-2.052l0.105 0.049c-3.376-1.898-6.048-4.701-7.733-8.083l-0.049-0.109-42.598-92.979-95.027-14.746c-8.536-1.526-14.932-8.894-14.932-17.755 0-4.784 1.864-9.133 4.905-12.359l-0.008 0.009 70.042-72.704-16.384-102.4c-0.131-0.817-0.206-1.76-0.206-2.72 0-6.037 2.968-11.381 7.525-14.651l0.054-0.037c2.698-1.73 5.991-2.759 9.523-2.759s6.825 1.028 9.595 2.801l-0.071-0.043 84.582 47.718 84.787-47.923c2.358-1.293 5.166-2.054 8.152-2.054 0.158 0 0.316 0.002 0.473 0.006h-0.023c0.081-0.001 0.177-0.002 0.274-0.002 9.614 0 17.408 7.794 17.408 17.408 0 1.087-0.1 2.15-0.29 3.181l0.016-0.107-16.384 102.4 69.427 72.704c2.59 3.125 4.162 7.175 4.162 11.593 0 2.005-0.324 3.935-0.922 5.739l0.037-0.129zM822.272 607.744l-61.44-34.816 11.878 75.162c0.115 0.786 0.181 1.694 0.181 2.617 0 4.908-1.857 9.383-4.906 12.76l0.015-0.017-51.2 54.272 70.451 10.854c6.050 0.954 11.020 4.84 13.471 10.13l0.046 0.11 30.515 66.56 30.31-66.56c2.489-5.329 7.359-9.185 13.203-10.224l0.109-0.016 70.656-10.854-51.814-54.682c-3.050-3.221-4.925-7.582-4.925-12.38 0-0.98 0.078-1.941 0.229-2.878l-0.014 0.103 12.083-74.957-61.44 34.816c-2.522 1.359-5.52 2.157-8.704 2.157s-6.182-0.799-8.804-2.206l0.1 0.049z" />
<glyph unicode="&#xe910;" glyph-name="info" d="M512 934.262c-268.555 0-486.262-217.707-486.262-486.262s217.707-486.262 486.262-486.262c268.555 0 486.262 217.707 486.262 486.262v0c0 268.555-217.707 486.262-486.262 486.262v0zM512 17.090c-237.985 0-430.91 192.925-430.91 430.91s192.925 430.91 430.91 430.91c237.985 0 430.91-192.925 430.91-430.91v0c-0.158-237.922-192.989-430.753-430.896-430.91h-0.015zM512 525.215c-15.285 0-27.676-12.391-27.676-27.676v0-245.206c0-15.285 12.391-27.676 27.676-27.676s27.676 12.391 27.676 27.676v0 245.206c0 15.285-12.391 27.676-27.676 27.676v0zM511.446 647.265c-0.047 0-0.103 0-0.158 0-9.178 0-17.464-3.818-23.356-9.953l-0.010-0.011c-6.152-6.033-9.965-14.431-9.965-23.719 0-0.126 0.001-0.252 0.002-0.378v0.019c-0.002-0.12-0.002-0.263-0.002-0.405 0-9.224 3.699-17.584 9.693-23.677l-0.004 0.005c5.859-6.146 14.109-9.968 23.252-9.968 0.193 0 0.386 0.002 0.578 0.005h-0.029c0.052 0 0.114 0 0.176 0 9.433 0 17.977 3.806 24.18 9.966l-0.002-0.002c6.314 6.012 10.241 14.481 10.241 23.868 0 0.074 0 0.148-0.001 0.222v-0.011c-0.007 9.451-3.929 17.984-10.23 24.068l-0.010 0.009c-6.201 6.158-14.745 9.964-24.178 9.964-0.062 0-0.124 0-0.186 0h0.010z" />
<glyph unicode="&#xe911;" glyph-name="infos-personnelles" d="M938.158 630.359h-79.741v43.574c0.001 0.129 0.001 0.283 0.001 0.436 0 37.422-30.336 67.758-67.758 67.758 0 0-0.001 0-0.001 0h-264.061c-0.021 0-0.045 0-0.070 0-14.608 0-28.171 4.479-39.388 12.138l0.241-0.155-90.417 61.44c-17.798 12.276-39.829 19.609-63.572 19.609-0.016 0-0.033 0-0.049 0h0.003l-246.196-0.654c-0.065 0-0.141 0-0.218 0-37.422 0-67.758-30.336-67.758-67.758 0 0 0 0 0 0v0-638.366c0 0 0 0 0 0 0-37.422 30.336-67.758 67.758-67.758 0.077 0 0.153 0 0.23 0h713.084c45.535 0 59.697 40.96 66.887 61.004l137.913 434.437v6.536c0 0.002 0 0.004 0 0.006 0 37.115-29.842 67.261-66.841 67.752h-0.046zM87.149 790.931h245.978c0.066 0 0.144 0 0.223 0 14.588 0 28.11-4.566 39.214-12.347l-0.22 0.146 90.417-61.004c17.798-12.276 39.829-19.609 63.572-19.609 0.016 0 0.033 0 0.049 0h264.277c0.005 0 0.010 0 0.016 0 13.050 0 23.686-10.336 24.167-23.269l0.001-0.044v-43.574h-589.998c-47.060 0-60.351-31.809-66.669-61.004l-95.428-301.317v497.838c0.123 13.383 11.001 24.184 24.401 24.184 0 0 0.001 0 0.001 0v0zM825.736 135.353c-10.24-28.977-16.558-31.156-25.491-31.156h-713.096c-12.471 0.053-22.71 9.536-23.957 21.684l-0.009 0.103 137.26 432.477c6.318 28.759 11.983 28.759 24.62 28.759h713.096c12.523-0.041 22.822-9.509 24.174-21.677l0.010-0.11z" />
<glyph unicode="&#xe912;" glyph-name="spiritualite" d="M512 623.158c85.724 0 155.217 69.493 155.217 155.217s-69.493 155.217-155.217 155.217c-85.724 0-155.217-69.493-155.217-155.217v0c0-85.724 69.493-155.217 155.217-155.217v0zM512 879.158c55.958 0 101.322-45.364 101.322-101.322s-45.363-101.322-101.322-101.322c-55.959 0-101.322 45.363-101.322 101.322 0 0.095 0 0.189 0 0.284v-0.015c0.153 55.843 45.458 101.053 101.322 101.053 0 0 0 0 0 0v0zM262.467 292.783h167.074c14.883 0 26.947 12.065 26.947 26.947s-12.065 26.947-26.947 26.947v0h-129.886c34.072 92.556 113.522 160.915 210.647 178.673l1.698 0.258c98.402-18.794 177.444-86.849 211.436-176.997l0.64-1.934h-129.886c-14.883 0-26.947-12.065-26.947-26.947s12.065-26.947 26.947-26.947v0h166.804c0.278-0.010 0.604-0.016 0.931-0.016 14.883 0 26.947 12.065 26.947 26.947 0 2.498-0.34 4.916-0.976 7.212l0.045-0.189c-31.935 131.487-138.512 231.276-271.326 252.779l-1.921 0.256h-5.928c-134.354-22.024-240.514-121.759-271.703-250.757l-0.465-2.278c-0.591-2.106-0.931-4.525-0.931-7.022 0-14.883 12.065-26.947 26.947-26.947 0.327 0 0.654 0.006 0.978 0.017l-0.047-0.001zM856.657 231.074h-689.314c-74.105 0-113.448-70.872-113.448-137.432-0.010-0.65-0.016-1.417-0.016-2.185 0-32.070 10.094-61.783 27.279-86.134l-0.315 0.471c19.882-26.142 51.005-42.847 86.030-42.847 0.166 0 0.331 0 0.497 0.001h275.107c14.883 0 26.947 12.065 26.947 26.947v0 99.166c0 14.883-12.065 26.947-26.947 26.947s-26.947-12.065-26.947-26.947v0-72.219h-248.185c-0.694-0.033-1.508-0.052-2.326-0.052-17.151 0-32.352 8.345-41.766 21.196l-0.101 0.145c-9.668 14.698-15.421 32.719-15.421 52.084 0 1.205 0.022 2.406 0.067 3.6l-0.005-0.172c0 33.415 16.168 83.537 60.362 83.537h688.505c44.194 0 60.362-50.122 60.362-83.537 0.018-0.702 0.029-1.529 0.029-2.357 0-19.914-6.051-38.415-16.414-53.765l0.217 0.341c-9.515-12.996-24.717-21.341-41.867-21.341-0.818 0-1.632 0.019-2.441 0.057l0.115-0.004h-248.185v72.488c0 14.883-12.065 26.947-26.947 26.947s-26.947-12.065-26.947-26.947v0-99.166c0-14.883 12.065-26.947 26.947-26.947v0h275.133c0.14-0.001 0.306-0.001 0.471-0.001 35.025 0 66.148 16.705 85.836 42.582l0.193 0.265c16.869 23.88 26.963 53.593 26.963 85.663 0 0.768-0.006 1.536-0.017 2.301l0.001-0.116c0 66.56-39.343 137.432-113.448 137.432z" />
<glyph unicode="&#xe913;" glyph-name="magazine" d="M979.782 767.069h-59.811v76.567c0.009 0.227 0.014 0.495 0.014 0.763 0 6.009-2.503 11.434-6.523 15.288l-0.007 0.007c-4.014 4.217-9.578 6.926-15.774 7.213l-0.051 0.002h-2.095l-42.822-3.491c-108.411-9.844-208.18-36.633-300.117-77.784l5.95 2.38-46.545-18.851-46.545 18.851c-85.973 38.33-185.702 64.724-290.353 73.984l-3.582 0.256-43.055 4.655c-0.035 0-0.076 0-0.117 0-12.034 0-21.934-9.133-23.148-20.846l-0.008-0.1v-78.895h-60.975c-12.853 0-23.273-10.42-23.273-23.273v0-691.433c0-12.853 10.42-23.273 23.273-23.273v0h935.564c12.853 0 23.273 10.42 23.273 23.273v0 692.131c-0.388 12.549-10.655 22.575-23.262 22.575-0.004 0-0.007 0-0.011 0h0.001zM124.509 128.698l44.451-3.724c11.869 0 23.273-2.095 35.375-3.491v-1.862h2.793l23.273-3.258 10.24-1.862 6.749-1.164c6.051 0 12.335-2.095 18.385-3.491l11.869-2.327h3.025l20.48-4.655 14.895-3.724 20.247-5.353 13.265-3.724h1.396c6.749-1.862 13.498-3.956 20.015-6.284l14.662-4.655 7.913-2.793h-326.749v645.585h37.004v-570.415c0.17-11.815 9.118-21.488 20.606-22.797l0.107-0.010zM149.178 172.218v646.516l18.385-1.629c103.566-8.887 199.059-34.142 287.042-73.233l-5.675 2.251 39.796-16.756v-642.793l-21.876 9.076c-86.175 38.462-186.142 64.94-291.050 74.217l-3.583 0.256zM535.273 86.575v642.793l40.495 16.989c82.364 36.399 177.897 61.259 278.121 69.601l3.246 0.218 18.385 1.629v-645.585l-21.411-1.629c-108.842-9.696-209.107-36.075-301.737-76.651l6.174 2.411zM639.535 78.196l15.127 4.887 19.549 5.818 15.36 4.422 19.782 5.353 15.36 3.724 20.48 4.655h3.025l11.869 2.56c4.887 1.164 10.007 1.862 14.895 2.793h6.051l5.12 2.56 21.644 3.258h13.731l36.305 3.724 42.124 3.491c11.704 1.333 20.713 11.18 20.713 23.132 0 0.050 0 0.099 0 0.149v-0.008 572.975h37.236v-646.051h-327.68z" />
<glyph unicode="&#xe914;" glyph-name="lifestyle" d="M890.611 390.872c-17.965 21.326-44.685 34.782-74.548 34.782-0.697 0-1.392-0.007-2.086-0.022l0.104 0.002h-3.503c41.768 66.021 39.613 160.067 36.648 272.977 0 18.594 0 37.726-1.347 57.667-0.189 10.165-5.978 18.936-14.404 23.373l-0.147 0.071c-3.518 1.802-7.674 2.858-12.077 2.858-5.539 0-10.687-1.671-14.968-4.536l0.098 0.061c-58.268-39.363-108.994-79.133-156.764-122.125l1.277 1.131c-23.843 100.149-59.894 188.404-107.302 269.188l2.476-4.565c-4.67 8.413-13.501 14.013-23.64 14.013-0.026 0-0.052 0-0.078 0h0.004c-0.255 0.009-0.554 0.014-0.854 0.014-9.596 0-18.020-5.016-22.794-12.568l-0.065-0.111c-52.344-77.737-93.781-168.083-119.331-264.881l-1.393-6.209c-45.64 46.224-94.17 89.288-145.415 129.016l-3.335 2.487c-4.521 3.552-10.295 5.696-16.569 5.696-13.947 0-25.419-10.595-26.807-24.175l-0.009-0.114c-15.629-155.217-22.097-264.354 18.324-340.076-27.797-1.278-52.358-14.132-69.143-33.819l-0.112-0.135c-9.785-11.853-15.72-27.201-15.72-43.934 0-5.832 0.721-11.495 2.078-16.905l-0.101 0.478 73.027-307.2c11.783-36.92 45.782-63.19 85.917-63.19 1.722 0 3.433 0.048 5.131 0.144l-0.236-0.011h458.105c1.303-0.067 2.83-0.106 4.365-0.106 40.125 0 74.117 26.257 85.732 62.526l0.176 0.637 73.027 307.2c1.256 4.933 1.977 10.596 1.977 16.428 0 16.733-5.935 32.081-15.814 44.052l0.094-0.118zM793.061 704.808c-0.064-1.127-0.101-2.446-0.101-3.773s0.037-2.646 0.109-3.955l-0.008 0.182c3.234-129.617 5.659-223.394-53.895-271.629h-105.903c17.475 37.796 27.668 82.025 27.668 128.634 0 13.454-0.849 26.71-2.497 39.716l0.16-1.546c40.702 39.595 84.586 76.468 131.034 110.011l3.433 2.36zM517.928 854.097c142.282-279.714 73.027-400.707 51.469-428.463h-106.442c-23.983 24.522-110.215 142.013 54.973 428.463zM232.556 710.198c48.421-39.655 91.89-80.733 132.298-124.67l0.822-0.905c-1.11-9.249-1.744-19.961-1.744-30.82 0-46.905 11.818-91.050 32.64-129.619l-0.715 1.449h-127.192c-48.236 53.625-48.505 145.516-36.109 284.564zM779.048 36.514c-6.238-12.953-19.264-21.734-34.34-21.734-1.287 0-2.56 0.064-3.814 0.189l0.158-0.013h-458.105c-1.096-0.112-2.368-0.176-3.656-0.176-15.076 0-28.102 8.781-34.241 21.507l-0.099 0.227-73.027 306.392c-0.284 1.172-0.447 2.518-0.447 3.902 0 4.036 1.386 7.748 3.709 10.686l-0.028-0.036c7.927 8.815 19.371 14.334 32.103 14.334 0.746 0 1.487-0.019 2.224-0.056l-0.103 0.004h604.699c0.633 0.033 1.374 0.052 2.12 0.052 12.732 0 24.175-5.519 32.068-14.295l0.035-0.039c2.553-2.989 4.107-6.899 4.107-11.171 0-1.196-0.122-2.364-0.354-3.492l0.019 0.111z" />
<glyph unicode="&#xe915;" glyph-name="menu" d="M961.969 407.040h-899.938c-22.622 0-40.96 18.338-40.96 40.96s18.338 40.96 40.96 40.96v0h899.938c22.622 0 40.96-18.338 40.96-40.96s-18.338-40.96-40.96-40.96v0zM961.969 720.738h-899.938c-21.367 1.529-38.122 19.239-38.122 40.862s16.755 39.332 37.99 40.854l0.132 0.008h899.938c21.367-1.529 38.122-19.239 38.122-40.862s-16.755-39.332-37.99-40.854l-0.132-0.008zM961.969 93.538h-899.938c-22.622 0-40.96 18.338-40.96 40.96s18.338 40.96 40.96 40.96h899.938c22.622 0 40.96-18.338 40.96-40.96s-18.338-40.96-40.96-40.96v0z" />
<glyph unicode="&#xe916;" glyph-name="moins" d="M922.678 406.501h-821.356c-29.765 0-53.895 24.129-53.895 53.895s24.129 53.895 53.895 53.895v0h821.356c29.765 0 53.895-24.129 53.895-53.895s-24.129-53.895-53.895-53.895v0z" />
<glyph unicode="&#xe917;" glyph-name="non-dispo-offres" d="M592.403 448l375.087 375.087c11.154 10.414 18.106 25.205 18.106 41.621 0 31.419-25.47 56.889-56.889 56.889-16.415 0-31.207-6.952-41.59-18.073l-0.031-0.033-375.087-375.087-375.087 375.087c-10.132 9.46-23.779 15.268-38.782 15.268-31.419 0-56.889-25.47-56.889-56.889 0-15.004 5.808-28.651 15.299-38.815l-0.031 0.033 375.087-375.087-375.087-375.087c-10.372-10.25-16.796-24.476-16.796-40.201s6.424-29.952 16.79-40.196l0.006-0.005c10.292-10.28 24.505-16.637 40.201-16.637s29.909 6.357 40.202 16.638l375.086 375.086 375.087-375.087c10.292-10.28 24.505-16.637 40.201-16.637s29.909 6.357 40.202 16.638l-0.001-0.001c10.372 10.25 16.796 24.476 16.796 40.201s-6.424 29.952-16.79 40.196l-0.006 0.005z" />
<glyph unicode="&#xe918;" glyph-name="officiel" d="M935.613 448c2.171 19.972 7.608 38.21 15.788 54.858l-0.428-0.963c11.072 19.707 17.594 43.256 17.594 68.328 0 9.865-1.010 19.494-2.931 28.79l0.158-0.915c-14.524 31.48-39.062 56.279-69.46 70.766l-0.873 0.375c-16.261 8.707-30.142 19.494-41.944 32.234l-0.094 0.102c-8.439 14.613-14.737 31.631-17.918 49.724l-0.136 0.937c-4.484 35.075-20.986 65.648-45.176 88.031l-0.095 0.087c-20.396 11.533-44.789 18.33-70.77 18.33-9.373 0-18.539-0.885-27.42-2.575l0.91 0.144c-6.589-0.909-14.203-1.428-21.938-1.428-11.304 0-22.349 1.108-33.032 3.222l1.075-0.177c-16.546 7.751-30.709 17.69-42.866 29.661l0.019-0.019c-23.182 24.765-54.743 41.437-90.139 45.479l-0.673 0.062c-35.93-4.386-67.284-21.218-90.185-45.983l-0.089-0.097c-12.137-11.952-26.3-21.891-41.919-29.249l-0.927-0.393c-9.539-1.999-20.5-3.144-31.728-3.144-7.818 0-15.507 0.555-23.029 1.628l0.862-0.101c-7.98 1.564-17.155 2.459-26.539 2.459-25.884 0-50.177-6.808-71.187-18.732l0.716 0.374c-24.646-22.333-41.443-52.93-46.001-87.389l-0.079-0.729c-3.439-19.037-9.725-36.040-18.473-51.463l0.419 0.802c-11.896-12.843-25.777-23.63-41.198-31.924l-0.84-0.413c-31.271-14.862-55.808-39.661-69.961-70.247l-0.371-0.894c-1.713-8.261-2.694-17.756-2.694-27.479 0-25.015 6.492-48.513 17.883-68.902l-0.368 0.717c7.715-15.685 13.148-33.918 15.292-53.145l0.068-0.75c-2.171-19.972-7.608-38.21-15.788-54.858l0.428 0.963c-11.072-19.707-17.594-43.256-17.594-68.328 0-9.865 1.010-19.494 2.931-28.79l-0.158 0.915c14.524-31.48 39.062-56.279 69.46-70.766l0.873-0.375c16.261-8.707 30.142-19.494 41.944-32.234l0.094-0.102c8.273-14.462 14.552-31.274 17.898-49.12l0.156-1.002c4.486-35.125 21.098-65.72 45.434-88.021l0.107-0.096c20.311-11.542 44.62-18.345 70.518-18.345 9.368 0 18.527 0.89 27.399 2.59l-0.906-0.145c6.66 0.972 14.348 1.527 22.167 1.527 11.228 0 22.189-1.145 32.772-3.323l-1.045 0.18c16.546-7.751 30.709-17.69 42.866-29.661l-0.019 0.019c23.117-24.968 54.68-41.825 90.123-46.014l0.69-0.066c35.807 4.28 67.124 20.806 90.209 45.203l0.064 0.069c12.137 11.952 26.3 21.891 41.919 29.249l0.927 0.393c9.539 1.999 20.5 3.144 31.728 3.144 7.818 0 15.507-0.555 23.029-1.628l-0.862 0.101c7.98-1.564 17.155-2.459 26.539-2.459 25.884 0 50.177 6.808 71.187 18.732l-0.716-0.374c24.443 22.398 41.055 52.993 45.466 87.404l0.075 0.714c3.439 19.037 9.725 36.040 18.473 51.463l-0.419-0.802c11.896 12.843 25.777 23.63 41.198 31.924l0.84 0.413c31.271 14.862 55.808 39.661 69.961 70.247l0.371 0.894c1.882 8.654 2.96 18.594 2.96 28.787 0 24.814-6.389 48.136-17.61 68.411l0.369-0.726c-7.715 15.685-13.148 33.918-15.292 53.145l-0.068 0.75zM901.12 374.434c8.601-15.29 13.668-33.565 13.668-53.022 0-2.298-0.071-4.579-0.21-6.842l0.015 0.31c-4.851-15.36-26.947-28.834-47.427-41.768-22.461-12.148-41.483-27.645-57.167-46.071l-0.231-0.278c-12.703-19.841-22.104-43.11-26.76-68.048l-0.187-1.207c-2.634-22.207-11.563-41.949-24.928-57.834l0.136 0.166c-11.947-4.964-25.823-7.847-40.373-7.847-7.648 0-15.111 0.797-22.308 2.311l0.703-0.124c-7.832 1.094-16.88 1.719-26.074 1.719-17.252 0-33.99-2.2-49.949-6.334l1.38 0.303c-23.638-9.667-43.859-23.058-60.946-39.656l0.045 0.044c-19.133-15.899-38.804-32.606-55.512-32.606s-36.379 16.707-55.512 32.606c-17.042 16.555-37.263 29.946-59.646 39.155l-1.255 0.457c-11.754 3.612-25.265 5.693-39.261 5.693-1.071 0-2.139-0.012-3.205-0.036l0.159 0.003c-10.779 0-21.558 0-32.337-1.347-6.434-1.337-13.828-2.103-21.401-2.103-14.612 0-28.559 2.851-41.314 8.026l0.737-0.264c-13.229 15.719-22.157 35.46-24.741 57.149l-0.050 0.519c-4.844 26.145-14.244 49.414-27.416 70.040l0.469-0.785c-15.879 18.642-34.802 34.126-56.096 45.83l-1.032 0.52c-21.019 12.935-42.846 26.947-47.697 41.768-0.124 1.952-0.195 4.234-0.195 6.532 0 19.458 5.067 37.732 13.953 53.575l-0.285-0.553c10.859 21.416 18.011 46.449 19.905 72.937l0.036 0.629c-1.784 27.069-8.752 52.118-19.918 74.722l0.516-1.156c-8.601 15.29-13.668 33.565-13.668 53.022 0 2.298 0.071 4.579 0.21 6.842l-0.015-0.31c4.851 15.36 26.947 28.834 47.697 41.768 22.86 12.103 42.238 27.611 58.265 46.101l0.21 0.248c12.703 19.841 22.104 43.11 26.76 68.048l0.187 1.207c2.634 22.207 11.563 41.949 24.928 57.834l-0.136-0.166c11.947 4.964 25.823 7.847 40.373 7.847 7.648 0 15.111-0.797 22.308-2.311l-0.703 0.124c7.837-1.097 16.89-1.724 26.090-1.724 17.247 0 33.979 2.201 49.932 6.338l-1.378-0.303c23.638 9.667 43.859 23.058 60.946 39.656l-0.045-0.044c17.516 15.899 37.187 33.415 53.895 33.415s36.379-16.707 55.512-32.606c17.042-16.555 37.263-29.946 59.646-39.155l1.255-0.457c14.575-3.834 31.307-6.035 48.554-6.035 9.2 0 18.253 0.626 27.12 1.839l-1.030-0.115c6.434 1.337 13.828 2.103 21.401 2.103 14.612 0 28.559-2.851 41.314-8.026l-0.737 0.264c13.229-15.719 22.157-35.46 24.741-57.149l0.050-0.519c4.844-26.145 14.244-49.414 27.416-70.040l-0.469 0.785c15.879-18.642 34.802-34.126 56.096-45.83l1.032-0.52c21.019-12.935 42.846-26.947 47.697-41.768 0.124-1.952 0.195-4.234 0.195-6.532 0-19.458-5.067-37.732-13.953-53.575l0.285 0.553c-10.839-21.676-17.91-47.007-19.641-73.792l-0.030-0.583c1.784-27.069 8.752-52.118 19.918-74.722l-0.516 1.156zM701.44 599.175l-233.364-233.364-101.861 101.592c-4.972 5.781-12.295 9.419-20.468 9.419-14.883 0-26.947-12.065-26.947-26.947 0-8.173 3.638-15.496 9.384-20.438l0.035-0.030 120.185-120.455c4.871-4.843 11.585-7.836 18.998-7.836s14.127 2.993 18.999 7.837l252.496 252.496c4.923 4.884 7.971 11.652 7.971 19.133s-3.048 14.248-7.969 19.131l-0.002 0.002c-4.809 4.526-11.305 7.306-18.45 7.306-7.418 0-14.135-2.997-19.008-7.846l0.001 0.001z" />
<glyph unicode="&#xe919;" glyph-name="paiement-CB" d="M917.79 793.302h-822.534c-39.456 0-71.442-31.986-71.442-71.442v0-536.528c0-39.456 31.986-71.442 71.442-71.442v0h822.534c39.456 0 71.442 31.986 71.442 71.442v0 536.528c0 39.456-31.986 71.442-71.442 71.442v0zM941.604 184.618c0-13.152-10.662-23.814-23.814-23.814v0h-822.534c-13.152 0-23.814 10.662-23.814 23.814v0 404.837h870.162zM941.604 637.083h-870.162v84.778c0 13.152 10.662 23.814 23.814 23.814v0h822.534c13.152 0 23.814-10.662 23.814-23.814v0zM174.318 427.52h414.601c13.152 0 23.814 10.662 23.814 23.814s-10.662 23.814-23.814 23.814v0h-414.601c-13.152 0-23.814-10.662-23.814-23.814s10.662-23.814 23.814-23.814v0zM174.318 312.022h414.601c13.152 0 23.814 10.662 23.814 23.814s-10.662 23.814-23.814 23.814v0h-414.601c-13.152 0-23.814-10.662-23.814-23.814s10.662-23.814 23.814-23.814v0zM736.804 302.259h80.253c26.304 0 47.628 21.324 47.628 47.628v0 80.253c0 26.304-21.324 47.628-47.628 47.628v0h-80.253c-26.304 0-47.628-21.324-47.628-47.628v0-80.253c0-26.304 21.324-47.628 47.628-47.628v0zM736.804 430.14h80.253v-80.253h-80.253z" />
<glyph unicode="&#xe91a;" glyph-name="paiement-securise" d="M754.526 555.789v134.737c0 133.944-108.583 242.526-242.526 242.526s-242.526-108.583-242.526-242.526v0-134.737h-94.316v-296.421c0-163.709 132.712-296.421 296.421-296.421v0h80.842c163.709 0 296.421 132.712 296.421 296.421v0 296.421zM323.368 690.526c0 104.178 84.453 188.632 188.632 188.632s188.632-84.453 188.632-188.632v0-134.737h-377.263zM794.947 259.368c0-133.944-108.583-242.526-242.526-242.526v0h-80.842c-133.944 0-242.526 108.583-242.526 242.526v0 242.526h565.895zM485.053 198.198v-73.566c0-14.883 12.065-26.947 26.947-26.947s26.947 12.065 26.947 26.947v0 73.566c46.86 12.395 80.842 54.412 80.842 104.367 0 59.53-48.259 107.789-107.789 107.789s-107.789-48.259-107.789-107.789c0-49.954 33.982-91.972 80.090-104.197l0.752-0.17zM512 353.684c29.765 0 53.895-24.129 53.895-53.895s-24.129-53.895-53.895-53.895c-29.765 0-53.895 24.129-53.895 53.895v0c0 29.765 24.129 53.895 53.895 53.895v0z" />
<glyph unicode="&#xe91b;" glyph-name="panier" d="M924.025 581.389c-0.153 61.647-50.163 111.562-111.831 111.562 0 0 0 0 0 0h-121.802v66.021c0 97.63-79.145 176.775-176.775 176.775s-176.775-79.145-176.775-176.775v0-66.021h-125.036c-0.082 0-0.18 0-0.278 0-61.14 0-110.794-49.183-111.553-110.143l-0.001-0.072-32.606-512c0.153-61.647 50.163-111.562 111.831-111.562 0 0 0 0 0 0h665.6c61.84 0.291 111.858 50.489 111.858 112.369 0 0.853-0.010 1.704-0.028 2.553l0.002-0.126zM390.737 758.973c0 67.865 55.015 122.88 122.88 122.88s122.88-55.015 122.88-122.88v0-66.021h-245.76zM844.8 14.417h-665.6c-0.163-0.002-0.356-0.003-0.549-0.003-31.322 0-56.784 25.089-57.387 56.266l-0.001 0.056 32.606 512c0.153 31.882 26.033 57.667 57.936 57.667 0 0 0 0 0.001 0h125.036v-121.263c0-14.883 12.065-26.947 26.947-26.947s26.947 12.065 26.947 26.947v0 121.263h245.76v-121.263c0-14.883 12.065-26.947 26.947-26.947s26.947 12.065 26.947 26.947v0 121.263h121.802c32.037-0.144 57.952-26.149 57.952-58.206 0-0.474-0.006-0.947-0.017-1.418l0.001 0.070 32.606-510.114c-0.753-31.264-26.276-56.321-57.652-56.321-0.1 0-0.201 0-0.301 0.001h0.015z" />
<glyph unicode="&#xe91c;" glyph-name="plus" d="M922.678 514.291h-356.783v344.387c0 29.765-24.129 53.895-53.895 53.895s-53.895-24.129-53.895-53.895v0-344.387h-356.783c-29.765 0-53.895-24.129-53.895-53.895s24.129-53.895 53.895-53.895v0h356.783v-369.179c0-29.765 24.129-53.895 53.895-53.895s53.895 24.129 53.895 53.895v0 369.179h356.783c29.765 0 53.895 24.129 53.895 53.895s-24.129 53.895-53.895 53.895v0z" />
<glyph unicode="&#xe91d;" glyph-name="podcast" d="M464 917.8c-77-7.6-153-33-219-73.2-64.6-39.4-130.2-105.2-170.2-170.6-25.2-41.6-47.2-93.6-58.8-139.8-13.4-53.2-19.8-119.8-13.6-140.4 3-10.4 14.6-23.6 24.4-28 7.8-3.4 8-4 23.6-43 15.8-39.4 15.8-39.4 13.4-49.2-1.2-5.6-1.8-13.6-1.2-18s23.8-64.2 51.4-132.6c45.6-112.6 51.2-125.4 58.4-132.8 9.6-9.6 24.2-15.2 36.6-13.8 4.8 0.6 17.2 4.4 27.8 8.6l19.2 7.6 4.6-4c8.6-8 18-11.4 30.4-11.4 10 0 17 2 40.8 11.8 31.4 12.8 39.6 18.4 46.4 32.4 9.6 19.6 11 15.2-58 185.6-37.6 92.8-64.6 156.8-68 161-9 11.4-21 17-36.2 16.8-11.2 0-17-1.6-41-11.4-24.6-10.2-29.2-12.8-37.4-21.6-7.8-8.2-10-12-12-22.2-2.8-13.4-1.2-12-25.6-21.6l-9.6-3.8-12.2 30.4c-8.6 21.4-11.6 30.6-9.8 31.2 1.4 0.4 6.6 4.8 11.6 10 10.4 10.6 14 20.2 14 37.8 0 15.8 3.4 49.6 7 68.8 2 10.4 2.2 17.2 1 20.4-3.6 9.8-16.4 12.2-23.6 4.8-6.4-7-14.4-58.6-14.4-92.8 0-10.2-0.8-13.6-4.6-17.8-6.4-7.6-18.4-7.6-24.8 0-5.4 6.2-6 17.6-2.4 55 9 97.2 48 190.4 111.8 266.6l16.6 19.8 11.6-11.6c6.6-6.4 11.8-12.2 11.8-12.8s-7-9-15.2-19c-28.2-33.4-56.6-80.8-72.8-121.2-4-10-4.2-11.8-1.8-17 3.2-6.6 11-10 18.6-8 4 1 6.6 3.8 9.4 10.8 32.8 76.8 76.2 134 137.2 180.8 104.2 79.8 242 105.4 370 68.4 134.6-38.8 244.6-148.8 283.4-283.6 10-34.2 17.2-81.4 17.2-111.6 0-17.6 3.6-27.2 14-37.8 5-5.2 10.2-9.6 11.8-10.2 2.4-0.6 0.8-6.2-7.4-25.8-5.6-13.8-11.2-27.4-12.2-30.4l-2-5.2-16.6 6.8-16.6 6.6-1.4 9.2c-1.8 12.2-10 26.2-19.2 32.2-12 7.8-63 27-71.6 27-16.4-0.2-34-10.4-40.6-23.8-2.2-4-31.4-75.4-65-158.6-54-133.4-61.2-152.6-61.2-162 0-13.4 7.4-29.4 17-36.8 7.8-6 57.4-26.2 68.4-28 12-1.8 23 2 38.8 13.4 2.4 1.8 7.6 0.6 25-6.2 18.8-7.4 23-8.4 32.4-7.4 13.2 1.4 26.8 9.2 33.4 19 2.8 4.2 27.2 62.4 54.4 129.4 51.4 127.4 53.8 134.4 48.6 149.8-2.2 7.2-1.6 9.2 14 48s16.6 40.6 23 43c9.2 3.2 22 18.2 25 29.4 5.6 20-1 86.4-14 137.8-9.6 38.2-18.6 62.4-37 100-26.4 53.8-53.8 92-97.8 136.2-43.6 43.4-81.6 71-135.4 97.6-48.2 24-96.8 39.2-150.4 47.4-30.8 4.6-94.6 6.6-123.4 3.6zM579.8 885c95.2-13.8 179.4-53.4 254.8-119.4l7.6-6.6-24-23.6-5.8 4.8c-30 24.6-40 32.2-57.4 43.4-104.8 68.2-233.2 89-356 57.4-62.8-16.2-124-47.8-174-89.8-9.8-8.2-18.4-15.2-19-15.2s-6.4 5.2-12.6 11.6l-11.6 11.6 19.6 16.6c22.8 19.2 62 45.8 87.2 59 49.2 25.8 109.8 44.8 163.8 51 10.2 1.2 21.8 2.6 25.6 3 14.4 1.8 81.8-0.8 101.8-3.8zM888.4 708c56.6-70 93-158.2 102.6-250 4.4-40.6 4-54.6-1.6-61-3.4-4.2-6.4-5.4-12.4-5.4-11.6 0-17 7-17 22 0 46.4-12.8 111.2-31.2 157.8-8.8 22.6-27.6 59-41.2 79.8-11.2 17.2-18.8 27.2-43.4 57.2l-4.8 5.8 23.6 24 6.6-7.6c3.8-4.2 12.2-14.4 18.8-22.6zM227.6 351.4c2.4-2.6 29.2-67.6 104.6-254.6 28-69.6 29.2-63.6-18-82.6-21.8-8.8-28.8-9.4-34.8-2.6-1.6 1.8-22.4 51.6-46.2 110.4s-44.8 108.2-46.6 109.6c-7.8 5.6-21 1-23.4-8.4-1-3.8 8.8-29.8 37.8-101.4 21.4-52.8 39.2-97.6 39.4-99.4 0.4-2.2-4-5-15.4-9.6-8.8-3.6-18-6.6-20.4-6.8-10.4-0.2-13.2 5.4-62.8 128-26.4 65.4-48.4 121-49.2 123.6-2.4 9.8 2.8 15.6 20.4 23.2 9.2 4 17.6 7.2 18.6 7.2s3.8-4.4 6.2-10c6.2-14.4 14.8-17.8 25-9.8 7 5.6 6.6 11.4-1.8 32.4-3.8 9.6-7 19.2-7 21.2 0 7.8 8.8 14.2 33 24.2 24.8 10.2 34.4 11.4 40.6 5.4zM836 346c26.8-10.8 34-15.8 34-23.8 0-2.8-3.4-13.4-7.4-23.8-8.2-20.8-7.8-26.8 1.8-32.2 10-5.6 20.2 2.4 26.2 20.4 1 3.2 35-10.4 38.6-15.4 1.6-2.2 2.8-6.6 2.8-9.6 0-6.2-95.8-244-100.6-249.8-6.2-7-12.6-6.8-31.2 0.8-11 4.4-17 8-16.6 9.8 0.4 1.4 18.2 45.8 39.6 98.6 21.4 52.6 38.8 97.4 38.8 99.2s-1.8 5.6-4.2 8.6c-5.4 6.8-15.4 7.2-21.2 0.8-2.2-2.6-23.2-52.2-46.6-110.2-43.2-107.2-46.4-113.4-56-113.4-6 0-56.2 21.4-59 25.2-1.6 2.2-3 6.4-3 9.6 0 4.6 106.8 273 120.4 302.4 3.6 8 9.2 12.4 15.8 12.6 1.6 0.2 14.2-4.4 27.8-9.8z" />
<glyph unicode="&#xe91e;" glyph-name="question" d="M996.864 30.208l-92.672 212.992v1.28c29.882 59.377 47.38 129.405 47.38 203.52 0 254.493-206.307 460.8-460.8 460.8s-460.8-206.307-460.8-460.8c0-254.306 206.004-460.497 460.239-460.8h0.029c0.746-0.004 1.628-0.007 2.511-0.007 94.484 0 182.267 28.692 255.111 77.838l-1.622-1.031 220.928-68.352c1.116-0.185 2.402-0.291 3.712-0.291s2.596 0.106 3.849 0.31l-0.137-0.018c7.639 0.010 14.492 3.364 19.176 8.676l0.024 0.028c3.274 4.257 5.248 9.662 5.248 15.529 0 3.738-0.801 7.288-2.241 10.489l0.065-0.162zM759.552 112.896c-2.41 0.829-5.187 1.307-8.075 1.307-6.787 0-12.957-2.641-17.538-6.951l0.013 0.012-5.12 7.936-2.816-2.048c-65.743-46.922-147.732-75.023-236.284-75.023-226.216 0-409.6 183.384-409.6 409.6s183.384 409.6 409.6 409.6c226.216 0 409.6-183.384 409.6-409.6 0-0.625-0.001-1.249-0.004-1.874v0.096c-0.096-70.27-17.805-136.382-48.949-194.187l1.077 2.187-1.792-3.328c-1.579-3.229-2.502-7.026-2.502-11.038 0-9.298 4.957-17.438 12.371-21.922l0.114-0.064 67.84-155.648zM564.736 624.896c-9.708 9.667-21.159 17.593-33.839 23.264l-0.721 0.288c-11.923 5.151-25.806 8.146-40.389 8.146-38.5 0-72.122-20.881-90.16-51.936l-0.267-0.498c-8.824-14.637-14.055-32.305-14.080-51.193v-0.007c-0.005-0.195-0.008-0.424-0.008-0.654 0-7.163 2.942-13.64 7.684-18.286l0.004-0.004c4.885-4.767 11.571-7.707 18.944-7.707s14.059 2.94 18.95 7.712l-0.006-0.005c4.746 4.651 7.688 11.127 7.688 18.29 0 0.23-0.003 0.459-0.009 0.687l0.001-0.034c-0.007 0.309-0.011 0.674-0.011 1.039 0 13.961 5.79 26.569 15.1 35.555l0.015 0.014c9.3 9.483 22.246 15.361 36.565 15.361 0.105 0 0.21 0 0.315-0.001h-0.016c9.494-0.061 18.332-2.818 25.801-7.543l-0.201 0.119c7.895-4.944 14.35-11.48 19.055-19.2l0.145-0.256c4.214-6.697 6.769-14.812 6.912-23.513v-0.039c0.015-0.48 0.024-1.046 0.024-1.613 0-10.362-2.863-20.055-7.842-28.332l0.139 0.248c-8.835-13.183-17.672-24.622-27.198-35.44l0.318 0.368c-11.445-12.413-21.988-26.048-31.295-40.553l-0.705-1.175c-7.408-12.58-11.784-27.714-11.784-43.87 0-0.417 0.003-0.833 0.009-1.249l-0.001 0.063v-36.608c-0.002-0.12-0.003-0.261-0.003-0.403 0-7.161 2.94-13.635 7.679-18.281l0.004-0.004c4.7-5.157 11.446-8.381 18.944-8.381s14.244 3.224 18.926 8.361l0.018 0.020c4.743 4.65 7.683 11.124 7.683 18.285 0 0.142-0.001 0.283-0.003 0.424v-0.021 36.096c-0.001 0.081-0.001 0.177-0.001 0.272 0 8.199 2.487 15.817 6.747 22.141l-0.090-0.141c7.434 11.116 15.095 20.81 23.445 29.86l-0.149-0.164c12.658 13.939 24.234 29.342 34.309 45.766l0.763 1.338c8.218 14.408 13.063 31.661 13.063 50.046 0 0.406-0.002 0.811-0.007 1.216l0.001-0.062c-0.116 13.915-3.119 27.098-8.44 39.021l0.248-0.621c-5.514 13.106-13.030 24.316-22.294 33.814l0.022-0.022zM489.728 294.4c-17.081-0.286-30.835-14.13-30.976-31.218v-0.014c-0.001-0.111-0.002-0.243-0.002-0.375 0-8.532 3.421-16.265 8.966-21.902l-0.004 0.004c5.42-5.685 13.051-9.22 21.508-9.22 0.179 0 0.357 0.002 0.535 0.005h-0.027c0.099-0.001 0.215-0.002 0.332-0.002 8.592 0 16.36 3.527 21.935 9.213l0.005 0.005c6.021 5.498 9.784 13.382 9.784 22.144s-3.763 16.646-9.76 22.123l-0.023 0.021c-5.58 5.69-13.348 9.218-21.94 9.218-0.117 0-0.233-0.001-0.349-0.002h0.018z" />
<glyph unicode="&#xe91f;" glyph-name="reabonnement" d="M977.264 142.638l-153.337-29.67c86.030 85.61 139.269 204.103 139.269 335.030 0 261.018-211.597 472.615-472.615 472.615s-472.615-211.597-472.615-472.615c0-260.611 210.937-471.954 471.392-472.614h0.063c14.501 0 26.256 11.755 26.256 26.256s-11.755 26.256-26.256 26.256v0c-0.176 0-0.385 0-0.594 0-232.886 0-421.678 188.792-421.678 421.678s188.792 421.678 421.678 421.678c232.886 0 421.678-188.792 421.678-421.678 0-128.057-57.082-242.782-147.19-320.117l-0.564-0.473-34.921 180.644c-2.431 12.461-13.26 21.737-26.256 21.737-14.76 0-26.726-11.966-26.726-26.726 0-1.764 0.171-3.489 0.497-5.158l-0.028 0.169 45.161-232.369c2.422-12.202 13.041-21.272 25.779-21.272 0.168 0 0.335 0.002 0.503 0.005h7.064l233.157 45.161c12.461 2.431 21.737 13.26 21.737 26.256 0 14.76-11.966 26.726-26.726 26.726-1.764 0-3.489-0.171-5.158-0.497l0.169 0.028z" />
<glyph unicode="&#xe920;" glyph-name="recherche-rond" d="M512 948.87c-276.623 0-500.87-224.247-500.87-500.87s224.247-500.87 500.87-500.87c276.623 0 500.87 224.247 500.87 500.87v0c0 276.623-224.247 500.87-500.87 500.87v0zM512-8.348c-252.034 0-456.348 204.314-456.348 456.348s204.314 456.348 456.348 456.348c252.034 0 456.348-204.314 456.348-456.348v0c-0.38-251.881-204.467-455.969-456.312-456.348h-0.036zM621.746 369.864c27.265 33.932 43.76 77.528 43.76 124.978 0 110.649-89.699 200.348-200.348 200.348s-200.348-89.699-200.348-200.348c0-110.649 89.699-200.348 200.348-200.348 47.449 0 91.046 16.495 125.369 44.063l-0.391-0.304 128.89-128.89c4.035-4.067 9.626-6.585 15.805-6.585s11.77 2.518 15.804 6.583l0.001 0.001c4.067 4.035 6.585 9.626 6.585 15.805s-2.518 11.77-6.583 15.804l-0.001 0.001zM465.92 339.144c-86.059 0.002-155.822 69.767-155.822 155.826s69.766 155.826 155.826 155.826 155.826-69.766 155.826-155.826c0-0.391-0.001-0.782-0.004-1.173v0.060c-0.63-85.504-70.028-154.589-155.592-154.713h-0.012z" />
<glyph unicode="&#xe921;" glyph-name="recherche" d="M989.238 7.68l-269.474 269.474c-2.618 2.538-5.76 4.554-9.246 5.867l-0.186 0.061c60.897 68.8 98.082 159.813 98.082 259.51 0 216.691-175.663 392.354-392.354 392.354s-392.354-175.663-392.354-392.354c0-216.691 175.663-392.354 392.354-392.354 99.698 0 190.71 37.185 259.925 98.442l-0.415-0.361c1.407-3.567 3.417-6.616 5.931-9.165l269.471-269.471c4.886-4.92 11.654-7.965 19.133-7.965 14.891 0 26.963 12.072 26.963 26.963 0 7.412-2.991 14.125-7.831 18.999l0.001-0.002zM417.684 204.126c-186.033 0-336.842 150.809-336.842 336.842s150.809 336.842 336.842 336.842c186.033 0 336.842-150.809 336.842-336.842v0c-0.306-185.91-150.933-336.536-336.813-336.842h-0.029z" />
<glyph unicode="&#xe922;" glyph-name="recommandation" d="M988.429 566.029c-2.88 9.248-10.728 16.105-20.345 17.5l-0.135 0.016-298.577 46.888-134.737 291.571c-4.658 8.454-13.512 14.086-23.68 14.086-4.542 0-8.822-1.124-12.576-3.108l0.147 0.071c-4.822-2.524-8.633-6.422-10.983-11.171l-0.066-0.146-134.737-291.301-296.691-47.697c-9.724-1.476-17.542-8.304-20.43-17.336l-0.050-0.179c-0.872-2.537-1.376-5.46-1.376-8.5 0-7.144 2.78-13.639 7.317-18.461l-0.013 0.014 216.926-227.166-51.469-321.213c-0.303-1.516-0.476-3.258-0.476-5.041 0-8.993 4.405-16.957 11.176-21.852l0.079-0.054c4.133-2.71 9.198-4.323 14.639-4.323 4.494 0 8.732 1.1 12.458 3.046l-0.149-0.071 266.779 150.636 267.318-149.288c3.549-2.126 7.813-3.417 12.371-3.503h0.024c0.001 0 0.002 0 0.002 0 5.703 0 10.957 1.926 15.145 5.163l-0.057-0.043c6.713 4.96 11.018 12.845 11.018 21.735 0 1.844-0.185 3.645-0.538 5.385l0.029-0.173-51.2 321.482 218.004 226.088c4.057 4.69 6.529 10.849 6.529 17.586 0 3.362-0.616 6.58-1.74 9.547l0.062-0.185zM311.781 316.497c0.206 1.251 0.323 2.692 0.323 4.161 0 7.157-2.79 13.662-7.342 18.488l0.012-0.013-191.057 199.949 262.467 41.229c8.898 1.099 16.238 6.825 19.611 14.662l0.061 0.159 116.143 253.036 116.143-253.036c3.793-7.715 10.952-13.275 19.509-14.797l0.163-0.024 262.467-40.96-191.057-199.141c-4.539-4.812-7.33-11.317-7.33-18.474 0-1.469 0.118-2.911 0.344-4.316l-0.020 0.154 45.002-281.6-231.747 131.503c-3.667 1.991-8.029 3.162-12.665 3.162s-8.998-1.171-12.808-3.232l0.142 0.071-233.095-131.773z" />
<glyph unicode="&#xe923;" glyph-name="sante" d="M983.993 590.884c-0.253 0-0.552 0.001-0.851 0.001-37.699 0-74.689-3.031-110.742-8.863l3.953 0.527c-10.245 86.862-34.724 165.913-71.152 237.891l1.853-4.038c-2.976 7.050-9.831 11.909-17.822 11.909-2.142 0-4.203-0.349-6.129-0.994l0.136 0.040c-58.647-23.231-109.254-53.405-154.102-90.322l0.979 0.782c-30.193 50.477-64.806 94.032-104.391 132.497l-0.152 0.147c-3.331 3.398-7.968 5.504-13.098 5.504s-9.767-2.106-13.095-5.501l-0.003-0.003c-39.738-38.612-74.351-82.167-102.935-129.756l-1.608-2.888c-43.869 36.135-94.476 66.31-149.292 88.191l-3.832 1.35c-1.789 0.605-3.85 0.954-5.992 0.954-7.99 0-14.846-4.858-17.774-11.782l-0.048-0.127c-34.913-67.972-59.71-147.075-69.912-230.685l-0.339-3.406c-32.334 5.42-69.609 8.536-107.604 8.573h-0.035c-11.539-0.988-20.531-10.598-20.531-22.308 0-0.53 0.018-1.055 0.055-1.576l-0.004 0.070c0-166.698 42.627-297.198 130.739-399.122 84.54-98.113 206.943-148.599 361.734-148.599s277.194 49.533 361.734 147.408c88.112 102.876 130.739 233.615 130.739 400.313 0.032 0.45 0.051 0.976 0.051 1.506 0 11.71-8.992 21.32-20.448 22.302l-0.083 0.006zM779.669 775.442c27.905-58.598 47.827-126.625 56.152-198.191l0.287-3.037c-47.998-11.609-90.23-30.485-127.882-55.673l1.43 0.901c-10.929 66.338-31.033 125.877-59.22 180.57l1.59-3.394c36.786 30.875 78.843 57.287 124.273 77.486l3.37 1.338zM244.331 775.442c48.792-21.173 90.856-47.202 128.534-78.349l-0.891 0.715c-26.716-51.658-46.835-111.618-57.159-174.869l-0.471-3.497c-36.222 24.287-78.454 43.163-123.752 54.215l-2.7 0.557c8.613 74.604 28.535 142.631 58.125 205.191l-1.686-3.963zM179.319 201.287c-76.919 89.064-114.783 197.894-118.593 341.968 104.305-2.62 183.367-26.433 247.427-73.585-0.57-9.712-0.895-21.071-0.895-32.506s0.325-22.794 0.966-34.068l-0.071 1.562c4.495-129.974 57.497-246.76 141.355-333.539l-0.138 0.144c-107.579 6.505-202.647 55.234-269.738 129.672l-0.312 0.352zM512.714 72.93c-96.631 80.444-158.993 199.203-163.581 332.632l-0.021 0.763c-0.222 5.879-0.348 12.783-0.348 19.717 0 154.076 62.372 293.585 163.244 394.655l-0.009-0.009c101.266-101.128 163.91-240.909 163.91-395.321 0-6.529-0.112-13.032-0.334-19.506l0.026 0.941c-4.466-134.371-66.858-253.326-162.871-333.28l-0.731-0.592zM846.11 201.287c-67.241-74.633-162.023-123.322-268.204-129.968l-1.131-0.057c83.72 86.635 136.722 203.421 141.193 332.539l0.024 0.856c0.57 9.712 0.895 21.071 0.895 32.506s-0.325 22.794-0.966 34.068l0.071-1.562c64.060 47.628 142.884 71.442 247.427 73.585-5.953-144.074-43.818-252.904-120.737-341.968z" />
<glyph unicode="&#xe924;" glyph-name="service-client" d="M1006.671 20.808l-95.048 217.141v1.575c31.097 61.276 49.312 133.606 49.312 210.19 0 261.018-211.597 472.615-472.615 472.615s-472.615-211.597-472.615-472.615c0-261.018 211.597-472.615 472.615-472.615 97.235 0 187.611 29.364 262.745 79.707l-1.707-1.077 226.593-70.105c1.144-0.177 2.464-0.277 3.807-0.277s2.663 0.101 3.952 0.295l-0.145-0.018c0.059 0 0.13-0.001 0.2-0.001 7.723 0 14.668 3.335 19.472 8.643l0.020 0.022c3.461 4.406 5.55 10.031 5.55 16.144 0 3.75-0.786 7.316-2.203 10.543l0.066-0.169zM768 104.041c-4.834 5.461-11.862 8.886-19.689 8.886-5.6 0-10.791-1.753-15.053-4.741l0.084 0.056-4.464-3.151c-67.43-48.127-151.523-76.949-242.347-76.949-232.016 0-420.103 188.086-420.103 420.103s188.086 420.103 420.103 420.103c232.016 0 420.103-188.086 420.103-420.103 0-0.086 0-0.172 0-0.258v0.014c-0.151-72.693-18.605-141.042-50.995-200.729l1.107 2.231v-2.101c-2.153-3.726-3.424-8.197-3.424-12.964 0-9.672 5.229-18.122 13.014-22.678l0.124-0.067 69.579-159.639zM636.455 585.846h-321.378c-14.501 0-26.256-11.755-26.256-26.256s11.755-26.256 26.256-26.256v0h321.378c14.501 0 26.256 11.755 26.256 26.256s-11.755 26.256-26.256 26.256v0zM636.455 458.765h-321.378c-14.501 0-26.256-11.755-26.256-26.256s11.755-26.256 26.256-26.256v0h321.378c14.501 0 26.256 11.755 26.256 26.256s-11.755 26.256-26.256 26.256v0zM636.455 331.422h-321.378c-14.501 0-26.256-11.755-26.256-26.256s11.755-26.256 26.256-26.256v0h321.378c14.501 0 26.256 11.755 26.256 26.256s-11.755 26.256-26.256 26.256v0z" />
<glyph unicode="&#xe925;" glyph-name="suivant" d="M767.69 483.685l-440.010 440.010c-8.29 7.74-19.455 12.492-31.731 12.492-25.706 0-46.545-20.839-46.545-46.545 0-12.276 4.752-23.442 12.517-31.758l-0.025 0.027 407.118-407.118-412.703-412.703c-8.486-8.386-13.742-20.025-13.742-32.892s5.256-24.506 13.738-32.888l0.005-0.004c8.187-8.428 19.626-13.657 32.287-13.657 0.213 0 0.425 0.001 0.637 0.004h-0.032c0.103-0.001 0.224-0.001 0.346-0.001 12.742 0 24.263 5.224 32.54 13.648l441.879 441.568c0.492 0.95 1.007 1.763 1.583 2.526l-0.032-0.044 2.172 1.552c8.486 8.386 13.742 20.025 13.742 32.892s-5.256 24.506-13.738 32.888l-0.005 0.004z" />
<glyph unicode="&#xe926;" glyph-name="supprimer" d="M644.851 108.194c14.883 0 26.947 12.065 26.947 26.947v0 424.421c-3.374 11.303-13.676 19.402-25.869 19.402s-22.496-8.099-25.82-19.211l-0.049-0.191v-425.499c0.521-13.704 11.2-24.756 24.695-25.863l0.097-0.006zM379.149 108.194c14.883 0 26.947 12.065 26.947 26.947v0 424.421c-3.374 11.303-13.676 19.402-25.869 19.402s-22.496-8.099-25.82-19.211l-0.049-0.191v-425.499c0.521-13.704 11.2-24.756 24.695-25.863l0.097-0.006zM904.893 738.762c-6.056 44.039-43.436 77.598-88.656 77.608h-111.833v24.792c0 0 0 0.001 0 0.002 0 50.75-41.141 91.891-91.891 91.891-0.189 0-0.379-0.001-0.568-0.002h-199.92c-0.16 0.001-0.349 0.002-0.539 0.002-50.75 0-91.891-41.141-91.891-91.891 0-0.001 0-0.001 0-0.002v0-24.792h-111.832c-0.684 0.019-1.49 0.030-2.298 0.030-49.261 0-89.196-39.934-89.196-89.196 0-40.481 26.967-74.663 63.916-85.563l0.631-0.16v-551.882c-0.006-0.474-0.010-1.034-0.010-1.595 0-33.456 12.917-63.894 34.036-86.601l-0.072 0.078c21.052-22.099 50.703-35.843 83.565-35.843 0.274 0 0.548 0.001 0.822 0.003h425.726c32.654 0.165 62.073 13.875 82.954 35.793l0.044 0.047c21.049 22.78 33.959 53.352 33.959 86.94 0 0.414-0.002 0.828-0.006 1.241v-0.063 551.882c37.214 11.397 63.808 45.446 63.808 85.707 0 4.080-0.273 8.097-0.802 12.032l0.051-0.46zM790.097 638.787v-549.187c0.089-1.31 0.14-2.84 0.14-4.382 0-36.714-28.906-66.676-65.201-68.371l-0.152-0.006h-425.768c-36.426 1.547-65.371 31.453-65.371 68.119 0 1.632 0.057 3.251 0.17 4.855l-0.012-0.216v549.187zM371.335 816.371v25.061c-0.001 0.081-0.001 0.177-0.001 0.273 0 22.175 17.976 40.152 40.152 40.152 0.19 0 0.379-0.001 0.569-0.004h199.92c11.195-0.011 21.356-4.424 28.849-11.602l-0.015 0.014c7.326-7.235 11.863-17.278 11.863-28.382 0-0.254-0.002-0.507-0.007-0.759l0.001 0.038v-24.792zM207.764 764.632h608.472c0.947 0.086 2.049 0.135 3.163 0.135 20.538 0 37.187-16.649 37.187-37.187s-16.649-37.187-37.187-37.187c-1.113 0-2.215 0.049-3.304 0.145l0.141-0.010h-608.472c-0.947-0.086-2.049-0.135-3.163-0.135-20.538 0-37.187 16.649-37.187 37.187s16.649 37.187 37.187 37.187c1.113 0 2.215-0.049 3.304-0.145l-0.141 0.010zM512 108.194c14.883 0 26.947 12.065 26.947 26.947v0 424.421c-3.374 11.303-13.676 19.402-25.869 19.402s-22.496-8.099-25.82-19.211l-0.049-0.191v-425.499c0.521-13.704 11.2-24.756 24.695-25.863l0.097-0.006z" />
<glyph unicode="&#xe927;" glyph-name="valider" d="M735.319 614.237l-276.044-276.044-124.187 123.969c-4.009 5.437-10.39 8.926-17.586 8.926-12.033 0-21.787-9.754-21.787-21.787 0-7.36 3.65-13.868 9.238-17.812l0.069-0.046 138.785-139.003c3.915-3.884 9.299-6.292 15.246-6.318h0.005c0.037 0 0.082 0 0.126 0 5.985 0 11.407 2.413 15.344 6.32l-0.001-0.001 291.513 291.077c4.674 4.020 7.616 9.94 7.616 16.548 0 12.033-9.754 21.787-21.787 21.787-6.608 0-12.529-2.942-16.524-7.587l-0.024-0.029zM513.525 938.213c-270.737 0-490.213-219.476-490.213-490.213s219.476-490.213 490.213-490.213c270.737 0 490.213 219.476 490.213 490.213v0c0 270.737-219.476 490.213-490.213 490.213v0zM513.525 1.362c-246.672 0-446.638 199.967-446.638 446.638s199.967 446.638 446.638 446.638c246.672 0 446.638-199.967 446.638-446.638v0c-0.248-246.572-200.067-446.39-446.615-446.638h-0.024z" />
<glyph unicode="&#xe928;" glyph-name="version-numerique" d="M917.558 935.478h-809.768c-44.648 0-80.842-36.194-80.842-80.842v0-638.922c0-44.648 36.194-80.842 80.842-80.842v0h283.486c-9.070-45.361-24.097-85.686-44.489-122.636l1.104 2.181h-65.752c-14.883 0-26.947-12.065-26.947-26.947s12.065-26.947 26.947-26.947v0h459.722c14.883 0 26.947 12.065 26.947 26.947s-12.065 26.947-26.947 26.947v0h-65.752c-19.331 34.77-34.363 75.1-42.934 117.766l-0.451 2.689h284.834c44.648 0 80.842 36.194 80.842 80.842v0 638.922c0 44.648-36.194 80.842-80.842 80.842v0zM107.789 881.583h811.116c14.883 0 26.947-12.065 26.947-26.947v0-503.107h-865.011v503.107c0 14.883 12.065 26.947 26.947 26.947v0zM615.478 14.417h-206.956c16.438 34.754 29.529 75.148 37.264 117.414l0.462 3.041h131.503c8.197-45.306 21.288-85.7 39.006-123.493l-1.28 3.038zM917.558 188.766h-809.768c-14.883 0-26.947 12.065-26.947 26.947v0 80.842h865.011v-80.842c0-0.010 0-0.022 0-0.034 0-14.883-12.065-26.947-26.947-26.947-0.474 0-0.945 0.012-1.413 0.036l0.066-0.003zM237.676 577.617h548.648c14.883 0 26.947 12.065 26.947 26.947s-12.065 26.947-26.947 26.947v0h-548.648c-14.883 0-26.947-12.065-26.947-26.947s12.065-26.947 26.947-26.947v0zM237.676 712.354h235.52c14.883 0 26.947 12.065 26.947 26.947s-12.065 26.947-26.947 26.947v0h-235.52c-14.883 0-26.947-12.065-26.947-26.947s12.065-26.947 26.947-26.947v0zM237.676 442.88h548.648c14.883 0 26.947 12.065 26.947 26.947s-12.065 26.947-26.947 26.947v0h-548.648c-14.883 0-26.947-12.065-26.947-26.947s12.065-26.947 26.947-26.947v0z" />
<glyph unicode="&#xe929;" glyph-name="version-numerique-plus" horiz-adv-x="1184" d="M914.464 476.576v-185.76h-764.416v445.312c0 14.304 9.536 23.808 23.808 23.808h535.808c-9.536 16.672-14.304 30.944-14.304 47.616h-521.536c-40.48 0-71.456-30.944-71.456-71.456v-564.384c0-40.48 30.944-71.456 71.456-71.456h250.048c-7.136-38.112-19.040-73.824-38.112-107.168h-57.152c-14.304 0-23.808-9.536-23.808-23.808s9.536-23.808 23.808-23.808h407.232c14.304 0 23.808 9.536 23.808 23.808s-9.536 23.808-23.808 23.808h-57.152c-19.040 33.344-30.944 69.056-38.112 107.168h252.416c40.48 0 71.456 30.944 71.456 71.456v321.472c-19.040-4.768-35.712-9.536-50.016-16.672zM438.176-6.848c16.672 33.344 26.208 69.056 33.344 107.168h116.672c7.136-35.712 16.672-71.456 33.344-107.168h-183.36zM914.464 171.744c0-14.304-9.536-23.808-23.808-23.808 0 0 0 0-2.368 0h-714.432c-14.304 0-23.808 9.536-23.808 23.808v71.456h764.416v-71.456zM288.16 467.040h485.792c14.304 0 23.808 9.536 23.808 23.808s-9.536 23.808-23.808 23.808h-485.792c-14.304 0-23.808-9.536-23.808-23.808s9.536-23.808 23.808-23.808zM288.16 586.112h207.168c14.304 0 23.808 9.536 23.808 23.808s-9.536 23.808-23.808 23.808h-207.168c-14.304 0-23.808-9.536-23.808-23.808s9.536-23.808 23.808-23.808zM288.16 347.968h485.792c14.304 0 23.808 9.536 23.808 23.808s-9.536 23.808-23.808 23.808h-485.792c-14.304 0-23.808-9.536-23.808-23.808s9.536-23.808 23.808-23.808zM1133.536 788.544c-2.368 7.136-9.536 11.904-16.672 14.304l-109.536 16.672-50.016 109.536c-2.368 4.768-7.136 9.536-11.904 9.536-4.768 2.368-11.904 0-16.672-2.368s-7.136-4.768-9.536-9.536l-50.016-107.168-109.536-16.672c-11.904-2.368-19.040-11.904-16.672-23.808 0-4.768 2.368-7.136 4.768-11.904l80.96-85.728-19.040-119.072c-2.368-7.136 2.368-16.672 9.536-21.44s14.304-4.768 21.44 0l97.632 54.784 97.632-54.784c2.368-2.368 7.136-2.368 9.536-2.368 11.904 0 21.44 9.536 21.44 19.040 0 2.368 0 2.368 0 4.768l-19.040 119.072 80.96 88.096c4.768 4.768 4.768 11.904 4.768 19.040zM926.368 640.896l-71.456-40.48 14.304 88.096c0 7.136 0 11.904-4.768 19.040l-59.52 61.92 80.96 11.904c7.136 0 11.904 4.768 16.672 11.904l35.712 76.192 33.344-76.192c2.368-7.136 9.536-11.904 16.672-11.904l83.36-11.904-59.52-64.288c-4.768-4.768-7.136-11.904-4.768-16.672l14.304-88.128-71.456 40.48c-9.536 2.368-16.672 2.368-23.808 0z" />
<glyph unicode="&#xe92a;" glyph-name="poster" d="M832 64h-640v128l192 320 263-320 185 128v-256zM832 480c0-53.020-42.98-96-96-96-53.022 0-96 42.98-96 96s42.978 96 96 96c53.020 0 96-42.98 96-96zM917.806 730.924c-22.212 30.292-53.174 65.7-87.178 99.704s-69.412 64.964-99.704 87.178c-51.574 37.82-76.592 42.194-90.924 42.194h-496c-44.112 0-80-35.888-80-80v-864c0-44.112 35.888-80 80-80h736c44.112 0 80 35.888 80 80v624c0 14.332-4.372 39.35-42.194 90.924zM785.374 785.374c30.7-30.7 54.8-58.398 72.58-81.374h-153.954v153.946c22.984-17.78 50.678-41.878 81.374-72.572zM896 16c0-8.672-7.328-16-16-16h-736c-8.672 0-16 7.328-16 16v864c0 8.672 7.328 16 16 16 0 0 495.956 0.002 496 0v-224c0-17.672 14.326-32 32-32h224v-624z" />
<glyph unicode="&#xe92b;" glyph-name="book" d="M938.667-64h-725.333c-70.699 0-128 57.301-128 128v768c0 70.699 57.301 128 128 128h725.333v-1024zM853.333 106.667h-618.88c-58.667 0-58.667-85.333 0-85.333h618.88v85.333zM853.333 874.667h-640v-682.667h640v682.667zM725.333 746.667v-128h-384v128h384z" />
<glyph unicode="&#xe9ce;" glyph-name="eye" d="M512 768c-223.318 0-416.882-130.042-512-320 95.118-189.958 288.682-320 512-320 223.312 0 416.876 130.042 512 320-95.116 189.958-288.688 320-512 320zM764.45 598.296c60.162-38.374 111.142-89.774 149.434-150.296-38.292-60.522-89.274-111.922-149.436-150.296-75.594-48.218-162.89-73.704-252.448-73.704-89.56 0-176.858 25.486-252.452 73.704-60.158 38.372-111.138 89.772-149.432 150.296 38.292 60.524 89.274 111.924 149.434 150.296 3.918 2.5 7.876 4.922 11.86 7.3-9.96-27.328-15.41-56.822-15.41-87.596 0-141.382 114.616-256 256-256 141.382 0 256 114.618 256 256 0 30.774-5.452 60.268-15.408 87.598 3.978-2.378 7.938-4.802 11.858-7.302v0zM512 544c0-53.020-42.98-96-96-96s-96 42.98-96 96 42.98 96 96 96 96-42.982 96-96z" />
<glyph unicode="&#xe9d1;" glyph-name="eye-blocked" d="M945.942 945.942c-18.746 18.744-49.136 18.744-67.882 0l-202.164-202.164c-51.938 15.754-106.948 24.222-163.896 24.222-223.318 0-416.882-130.042-512-320 41.122-82.124 100.648-153.040 173.022-207.096l-158.962-158.962c-18.746-18.746-18.746-49.136 0-67.882 9.372-9.374 21.656-14.060 33.94-14.060s24.568 4.686 33.942 14.058l864 864c18.744 18.746 18.744 49.138 0 67.884zM416 640c42.24 0 78.082-27.294 90.92-65.196l-121.724-121.724c-37.902 12.838-65.196 48.68-65.196 90.92 0 53.020 42.98 96 96 96zM110.116 448c38.292 60.524 89.274 111.924 149.434 150.296 3.918 2.5 7.876 4.922 11.862 7.3-9.962-27.328-15.412-56.822-15.412-87.596 0-54.89 17.286-105.738 46.7-147.418l-60.924-60.924c-52.446 36.842-97.202 83.882-131.66 138.342zM768 518c0 27.166-4.256 53.334-12.102 77.898l-321.808-321.808c24.568-7.842 50.742-12.090 77.91-12.090 141.382 0 256 114.618 256 256zM830.026 670.026l-69.362-69.362c1.264-0.786 2.53-1.568 3.786-2.368 60.162-38.374 111.142-89.774 149.434-150.296-38.292-60.522-89.274-111.922-149.436-150.296-75.594-48.218-162.89-73.704-252.448-73.704-38.664 0-76.902 4.76-113.962 14.040l-76.894-76.894c59.718-21.462 123.95-33.146 190.856-33.146 223.31 0 416.876 130.042 512 320-45.022 89.916-112.118 166.396-193.974 222.026z" />
<glyph unicode="&#xea86;" glyph-name="mail4" d="M512 960c-282.77 0-512-229.23-512-512s229.23-512 512-512 512 229.23 512 512-229.23 512-512 512zM256 704h512c9.138 0 18.004-1.962 26.144-5.662l-282.144-329.168-282.144 329.17c8.14 3.696 17.006 5.66 26.144 5.66zM192 256v384c0 1.34 0.056 2.672 0.14 4l187.664-218.942-185.598-185.598c-1.444 5.336-2.206 10.886-2.206 16.54zM768 192h-512c-5.654 0-11.202 0.762-16.54 2.208l182.118 182.118 90.422-105.498 90.424 105.494 182.116-182.12c-5.34-1.44-10.886-2.202-16.54-2.202zM832 256c0-5.654-0.762-11.2-2.206-16.54l-185.6 185.598 187.666 218.942c0.084-1.328 0.14-2.66 0.14-4v-384z" />
</font>
</defs>
</svg>
